<?xml version="1.0" standalone="no"?>
<!DOCTYPE svg PUBLIC "-//W3C//DTD SVG 1.1//EN" "http://www.w3.org/Graphics/SVG/1.1/DTD/svg11.dtd" >
<svg xmlns="http://www.w3.org/2000/svg">
<metadata></metadata>
<defs>
<font id="silkscreennormal" horiz-adv-x="1462" >
<font-face units-per-em="2048" ascent="1638" descent="-410" />
<missing-glyph horiz-adv-x="975" />
<glyph horiz-adv-x="2048" />
<glyph horiz-adv-x="2048" />
<glyph unicode="&#xd;" horiz-adv-x="975" />
<glyph unicode=" "  horiz-adv-x="975" />
<glyph unicode="&#x09;" horiz-adv-x="975" />
<glyph unicode="&#xa0;" horiz-adv-x="975" />
<glyph unicode="!" horiz-adv-x="731" d="M244 0v244h244v-244h-244zM244 488v731h244v-731h-244z" />
<glyph unicode="&#x22;" horiz-adv-x="1219" d="M244 731v488h244v-488h-244zM731 731v488h244v-488h-244z" />
<glyph unicode="#" horiz-adv-x="1706" d="M244 244v244h244v-244h-244zM244 731v244h244v-244h-244zM488 0v1219h243v-1219h-243zM731 244v244h244v-244h-244zM731 731v244h244v-244h-244zM975 0v1219h244v-1219h-244zM1219 244v244h244v-244h-244zM1219 731v244h244v-244h-244z" />
<glyph unicode="$" d="M244 0v244h731v244h244v-488h-975zM244 731v244h244v-244h-244zM488 0h243v-244h-243v244zM488 488v243h487v-243h-487zM488 975v244h731v-244h-731zM731 1219v244h244v-244h-244z" />
<glyph unicode="%" horiz-adv-x="1706" d="M244 731v488h487v-488h-487zM488 0v488h243v-488h-243zM731 488v243h244v-243h-244zM975 0v488h488v-488h-488zM975 731v488h244v-488h-244z" />
<glyph unicode="&#x26;" d="M244 244v244h244v-244h-244zM244 731v244h244v-244h-244zM488 0v244h731v-244h-731zM488 488v243h487v-243h-487zM488 975v244h731v-244h-731zM731 0h244v-244h-244v244zM731 1219v244h244v-244h-244z" />
<glyph unicode="'" horiz-adv-x="731" d="M244 731v488h244v-488h-244z" />
<glyph unicode="(" horiz-adv-x="975" d="M244 244v731h244v-731h-244zM488 0v244h243v-244h-243zM488 0zM488 975v244h243v-244h-243z" />
<glyph unicode=")" horiz-adv-x="975" d="M244 0v244h244v-244h-244zM244 975v244h244v-244h-244zM488 0zM488 244v731h243v-731h-243z" />
<glyph unicode="*" horiz-adv-x="1706" d="M244 244v244h244v-244h-244zM244 731v244h244v-244h-244zM488 488v243h243v-243h-243zM731 0v1219h244v-1219h-244zM975 488v243h244v-243h-244zM1219 244v244h244v-244h-244zM1219 731v244h244v-244h-244z" />
<glyph unicode="+" horiz-adv-x="1706" d="M244 488h487v-488h244v488h488v243h-488v488h-244v-488h-487v-243z" />
<glyph unicode="," horiz-adv-x="731" d="M0 0h244v-244h-244v244zM244 0v244h244v-244h-244z" />
<glyph unicode="-" horiz-adv-x="1219" d="M244 488v243h731v-243h-731z" />
<glyph unicode="." horiz-adv-x="487" d="M0 0v244h244v-244h-244z" />
<glyph unicode="/" horiz-adv-x="1219" d="M244 0v488h244v-488h-244zM488 488v243h243v-243h-243zM731 731v488h244v-488h-244z" />
<glyph unicode="0" d="M244 244v731h244v-731h-244zM488 0v244h487v-244h-487zM488 0zM488 975v244h487v-244h-487zM975 244v731h244v-731h-244z" />
<glyph unicode="1" horiz-adv-x="1219" d="M244 0v244h244v731h-244v244h487v-975h244v-244h-731z" />
<glyph unicode="2" d="M244 0v488h244v-244h731v-244h-975zM244 975v244h731v-244h-731zM488 488v243h487v-243h-487zM975 731v244h244v-244h-244z" />
<glyph unicode="3" d="M244 0v244h731v-244h-731zM244 975v244h731v-244h-731zM488 488v243h487v-243h-487zM975 244v244h244v-244h-244zM975 731v244h244v-244h-244z" />
<glyph unicode="4" d="M244 244h487v-244h244v244h244v244h-244v731h-244v-731h-243v731h-244v-975z" />
<glyph unicode="5" d="M244 0v244h731v-244h-731zM244 488h731v243h-487v244h731v244h-975v-731zM975 244v244h244v-244h-244z" />
<glyph unicode="6" d="M244 244h244v244h487v243h-487v244h-244v-731zM488 0v244h487v-244h-487zM488 975v244h487v-244h-487zM975 244v244h244v-244h-244z" />
<glyph unicode="7" d="M244 975v244h975v-488h-244v244h-731zM488 0v488h243v-488h-243zM731 488v243h244v-243h-244z" />
<glyph unicode="8" d="M244 244v244h244v-244h-244zM244 731v244h244v-244h-244zM488 0v244h487v-244h-487zM488 488v243h487v-243h-487zM488 975v244h487v-244h-487zM975 244v244h244v-244h-244zM975 731v244h244v-244h-244z" />
<glyph unicode="9" d="M244 731v244h244v-244h-244zM488 0v244h487v-244h-487zM488 488h487v-244h244v731h-244v-244h-487v-243zM488 975v244h487v-244h-487z" />
<glyph unicode=":" horiz-adv-x="487" d="M0 244v244h244v-244h-244zM0 731v244h244v-244h-244z" />
<glyph unicode=";" horiz-adv-x="731" d="M0 0v244h244v-244h-244zM244 244v244h244v-244h-244zM244 731v244h244v-244h-244z" />
<glyph unicode="&#x3c;" horiz-adv-x="1219" d="M244 488v243h244v-243h-244zM488 244v244h243v-244h-243zM488 731v244h243v-244h-243zM731 0v244h244v-244h-244zM731 975v244h244v-244h-244z" />
<glyph unicode="=" horiz-adv-x="1219" d="M244 244v244h731v-244h-731zM244 731v244h731v-244h-731z" />
<glyph unicode="&#x3e;" horiz-adv-x="1219" d="M244 0v244h244v-244h-244zM244 975v244h244v-244h-244zM488 244v244h243v-244h-243zM488 731v244h243v-244h-243zM731 488v243h244v-243h-244z" />
<glyph unicode="?" d="M244 975v244h731v-244h-731zM488 0v244h243v-244h-243zM488 488v243h487v-243h-487zM975 731v244h244v-244h-244z" />
<glyph unicode="@" horiz-adv-x="1706" d="M244 244v731h244v-731h-244zM488 0v244h731v-244h-731zM488 0zM488 975h243v-487h488v243h-244v244h244v244h-731v-244zM1219 731v244h244v-244h-244z" />
<glyph unicode="A" d="M250 0v975h243v-244h488v244h244v-975h-244v488h-488v-488h-243zM493 975h488v244h-488v-244z" />
<glyph unicode="B" d="M244 0v1219h731v-244h-487v-244h487v-243h-487v-244h487v-244h-731zM975 244v244h244v-244h-244zM975 731v244h244v-244h-244z" />
<glyph unicode="C" d="M244 244v731h244v-731h-244zM488 0v244h487v-244h-487zM488 0zM488 975v244h487v-244h-487zM975 244v244h244v-244h-244zM975 488zM975 731v244h244v-244h-244z" />
<glyph unicode="D" d="M244 0v1219h731v-244h-487v-731h487v-244h-731zM975 244v731h244v-731h-244z" />
<glyph unicode="E" horiz-adv-x="1219" d="M244 0v1219h731v-244h-487v-244h487v-243h-487v-244h487v-244h-731z" />
<glyph unicode="F" horiz-adv-x="1219" d="M244 0v1219h731v-244h-487v-244h487v-243h-487v-488h-244z" />
<glyph unicode="G" d="M244 244v731h244v-731h-244zM488 0v244h487v-244h-487zM488 0zM488 975v244h731v-244h-731zM731 488v243h488v-487h-244v244h-244z" />
<glyph unicode="H" d="M244 0v1219h244v-488h487v488h244v-1219h-244v488h-487v-488h-244z" />
<glyph unicode="I" horiz-adv-x="731" d="M244 0v1219h244v-1219h-244z" />
<glyph unicode="J" d="M244 244v244h244v-244h-244zM488 0v244h487v-244h-487zM975 244v975h244v-975h-244z" />
<glyph unicode="K" d="M244 0v1219h244v-488h243v-243h-243v-488h-244zM731 244v244h244v-244h-244zM731 731v244h244v-244h-244zM975 0v244h244v-244h-244zM975 975v244h244v-244h-244z" />
<glyph unicode="L" horiz-adv-x="1219" d="M244 0v1219h244v-975h487v-244h-731z" />
<glyph unicode="M" horiz-adv-x="1706" d="M244 0v1219h244v-1219h-244zM488 731v244h243v-244h-243zM731 488v243h244v-243h-244zM975 731v244h244v-244h-244zM1219 0v1219h244v-1219h-244z" />
<glyph unicode="N" horiz-adv-x="1706" d="M244 0v1219h244v-1219h-244zM488 731v244h243v-244h-243zM731 488v243h244v-243h-244zM975 244v244h244v-244h-244zM1219 0v1219h244v-1219h-244z" />
<glyph unicode="O" d="M244 244v731h244v-731h-244zM488 0v244h487v-244h-487zM488 0zM488 975v244h487v-244h-487zM975 244v731h244v-731h-244z" />
<glyph unicode="P" d="M244 0v1219h731v-244h-487v-244h487v-243h-487v-488h-244zM975 731v244h244v-244h-244z" />
<glyph unicode="Q" d="M244 244v731h244v-731h-244zM488 0v244h487v-244h-487zM488 0zM488 975v244h487v-244h-487zM975 0h244v-244h-244v244zM975 244v731h244v-731h-244z" />
<glyph unicode="R" d="M244 0v1219h731v-244h-487v-244h487v-243h-487v-488h-244zM731 244v244h244v-244h-244zM975 0v244h244v-244h-244zM975 731v244h244v-244h-244z" />
<glyph unicode="S" d="M244 0v244h731v-244h-731zM244 731v244h244v-244h-244zM488 488h487v243h-487v-243zM488 975v244h731v-244h-731zM975 244v244h244v-244h-244z" />
<glyph unicode="T" horiz-adv-x="1219" d="M244 975v244h731v-244h-244v-975h-243v975h-244z" />
<glyph unicode="U" d="M244 244v975h244v-975h-244zM488 0v244h487v-244h-487zM975 244v975h244v-975h-244z" />
<glyph unicode="V" horiz-adv-x="1706" d="M244 731v488h244v-488h-244zM488 244v487h243v-487h-243zM731 0v244h244v-244h-244zM975 244v487h244v-487h-244zM1219 731v488h244v-488h-244z" />
<glyph unicode="W" horiz-adv-x="1706" d="M244 244v975h244v-975h-244zM488 0v244h243v-244h-243zM731 244v731h244v-731h-244zM975 0v244h244v-244h-244zM1219 244v975h244v-975h-244z" />
<glyph unicode="X" horiz-adv-x="1706" d="M244 0v244h244v-244h-244zM244 975v244h244v-244h-244zM488 244v244h243v-244h-243zM488 731v244h243v-244h-243zM731 488v243h244v-243h-244zM975 244v244h244v-244h-244zM975 731v244h244v-244h-244zM1219 0v244h244v-244h-244zM1219 975v244h244v-244h-244z" />
<glyph unicode="Y" horiz-adv-x="1706" d="M244 975v244h244v-244h-244zM488 731v244h243v-244h-243zM731 0v731h244v-731h-244zM975 731v244h244v-244h-244zM1219 975v244h244v-244h-244z" />
<glyph unicode="Z" horiz-adv-x="1219" d="M244 0v488h244v-244h487v-244h-731zM244 975v244h731v-488h-244v244h-487zM488 488v243h243v-243h-243z" />
<glyph unicode="[" horiz-adv-x="975" d="M244 0v1219h487v-244h-243v-731h243v-244h-487z" />
<glyph unicode="\" horiz-adv-x="1219" d="M244 731v488h244v-488h-244zM488 488v243h243v-243h-243zM731 0v488h244v-488h-244z" />
<glyph unicode="]" horiz-adv-x="975" d="M244 0v244h244v731h-244v244h487v-1219h-487z" />
<glyph unicode="^" horiz-adv-x="1219" d="M244 731v244h244v-244h-244zM488 975v244h243v-244h-243zM731 731v244h244v-244h-244z" />
<glyph unicode="_" d="M244 0h975v-244h-975v244z" />
<glyph unicode="`" horiz-adv-x="975" d="M244 975v244h244v-244h-244zM488 0zM488 731v244h243v-244h-243z" />
<glyph unicode="a" d="M250 0v975h243v-244h488v244h244v-975h-244v488h-488v-488h-243zM493 975h488v244h-488v-244z" />
<glyph unicode="b" d="M244 0v1219h731v-244h-487v-244h487v-243h-487v-244h487v-244h-731zM975 244v244h244v-244h-244zM975 731v244h244v-244h-244z" />
<glyph unicode="c" d="M244 244v731h244v-731h-244zM488 0v244h487v-244h-487zM488 0zM488 975v244h487v-244h-487zM975 244v244h244v-244h-244zM975 488zM975 731v244h244v-244h-244z" />
<glyph unicode="d" d="M244 0v1219h731v-244h-487v-731h487v-244h-731zM975 244v731h244v-731h-244z" />
<glyph unicode="e" horiz-adv-x="1219" d="M244 0v1219h731v-244h-487v-244h487v-243h-487v-244h487v-244h-731z" />
<glyph unicode="f" horiz-adv-x="1219" d="M244 0v1219h731v-244h-487v-244h487v-243h-487v-488h-244z" />
<glyph unicode="g" d="M244 244v731h244v-731h-244zM488 0v244h487v-244h-487zM488 0zM488 975v244h731v-244h-731zM731 488v243h488v-487h-244v244h-244z" />
<glyph unicode="h" d="M244 0v1219h244v-488h487v488h244v-1219h-244v488h-487v-488h-244z" />
<glyph unicode="i" horiz-adv-x="731" d="M244 0v1219h244v-1219h-244z" />
<glyph unicode="j" d="M244 244v244h244v-244h-244zM488 0v244h487v-244h-487zM975 244v975h244v-975h-244z" />
<glyph unicode="k" d="M244 0v1219h244v-488h243v-243h-243v-488h-244zM731 244v244h244v-244h-244zM731 731v244h244v-244h-244zM975 0v244h244v-244h-244zM975 975v244h244v-244h-244z" />
<glyph unicode="l" horiz-adv-x="1219" d="M244 0v1219h244v-975h487v-244h-731z" />
<glyph unicode="m" horiz-adv-x="1706" d="M244 0v1219h244v-1219h-244zM488 731v244h243v-244h-243zM731 488v243h244v-243h-244zM975 731v244h244v-244h-244zM1219 0v1219h244v-1219h-244z" />
<glyph unicode="n" horiz-adv-x="1706" d="M244 0v1219h244v-1219h-244zM488 731v244h243v-244h-243zM731 488v243h244v-243h-244zM975 244v244h244v-244h-244zM1219 0v1219h244v-1219h-244z" />
<glyph unicode="o" d="M244 244v731h244v-731h-244zM488 0v244h487v-244h-487zM488 0zM488 975v244h487v-244h-487zM975 244v731h244v-731h-244z" />
<glyph unicode="p" d="M244 0v1219h731v-244h-487v-244h487v-243h-487v-488h-244zM975 731v244h244v-244h-244z" />
<glyph unicode="q" d="M244 244v731h244v-731h-244zM488 0v244h487v-244h-487zM488 0zM488 975v244h487v-244h-487zM975 0h244v-244h-244v244zM975 244v731h244v-731h-244z" />
<glyph unicode="r" d="M244 0v1219h731v-244h-487v-244h487v-243h-487v-488h-244zM731 244v244h244v-244h-244zM975 0v244h244v-244h-244zM975 731v244h244v-244h-244z" />
<glyph unicode="s" d="M244 0v244h731v-244h-731zM244 731v244h244v-244h-244zM488 488h487v243h-487v-243zM488 975v244h731v-244h-731zM975 244v244h244v-244h-244z" />
<glyph unicode="t" horiz-adv-x="1219" d="M244 975v244h731v-244h-244v-975h-243v975h-244z" />
<glyph unicode="u" d="M244 244v975h244v-975h-244zM488 0v244h487v-244h-487zM975 244v975h244v-975h-244z" />
<glyph unicode="v" horiz-adv-x="1706" d="M244 731v488h244v-488h-244zM488 244v487h243v-487h-243zM731 0v244h244v-244h-244zM975 244v487h244v-487h-244zM1219 731v488h244v-488h-244z" />
<glyph unicode="w" horiz-adv-x="1706" d="M244 244v975h244v-975h-244zM488 0v244h243v-244h-243zM731 244v731h244v-731h-244zM975 0v244h244v-244h-244zM1219 244v975h244v-975h-244z" />
<glyph unicode="x" horiz-adv-x="1706" d="M244 0v244h244v-244h-244zM244 975v244h244v-244h-244zM488 244v244h243v-244h-243zM488 731v244h243v-244h-243zM731 488v243h244v-243h-244zM975 244v244h244v-244h-244zM975 731v244h244v-244h-244zM1219 0v244h244v-244h-244zM1219 975v244h244v-244h-244z" />
<glyph unicode="y" horiz-adv-x="1706" d="M244 975v244h244v-244h-244zM488 731v244h243v-244h-243zM731 0v731h244v-731h-244zM975 731v244h244v-244h-244zM1219 975v244h244v-244h-244z" />
<glyph unicode="z" horiz-adv-x="1219" d="M244 0v488h244v-244h487v-244h-731zM244 975v244h731v-488h-244v244h-487zM488 488v243h243v-243h-243z" />
<glyph unicode="{" horiz-adv-x="1219" d="M244 488v243h244v-243h-244zM488 0v488h243v-244h244v-244h-487zM488 731v488h487v-244h-244v-244h-243z" />
<glyph unicode="|" horiz-adv-x="731" d="M244 -244v1707h244v-1707h-244z" />
<glyph unicode="}" horiz-adv-x="1219" d="M244 0v244h244v244h243v-488h-487zM244 975v244h487v-488h-243v244h-244zM731 488v243h244v-243h-244z" />
<glyph unicode="~" d="M244 731v244h244v-244h-244zM488 975v244h243v-244h-243zM731 731v244h244v-244h-244zM975 975v244h244v-244h-244z" />
<glyph unicode="&#xad;" horiz-adv-x="1219" d="M244 488v243h731v-243h-731z" />
<glyph unicode="&#x2000;" horiz-adv-x="731" />
<glyph unicode="&#x2001;" horiz-adv-x="1463" />
<glyph unicode="&#x2002;" horiz-adv-x="731" />
<glyph unicode="&#x2003;" horiz-adv-x="1463" />
<glyph unicode="&#x2004;" horiz-adv-x="487" />
<glyph unicode="&#x2005;" horiz-adv-x="365" />
<glyph unicode="&#x2006;" horiz-adv-x="243" />
<glyph unicode="&#x2007;" horiz-adv-x="243" />
<glyph unicode="&#x2008;" horiz-adv-x="182" />
<glyph unicode="&#x2009;" horiz-adv-x="292" />
<glyph unicode="&#x200a;" horiz-adv-x="81" />
<glyph unicode="&#x2010;" horiz-adv-x="1219" d="M244 488v243h731v-243h-731z" />
<glyph unicode="&#x2011;" horiz-adv-x="1219" d="M244 488v243h731v-243h-731z" />
<glyph unicode="&#x2012;" horiz-adv-x="1219" d="M244 488v243h731v-243h-731z" />
<glyph unicode="&#x2013;" horiz-adv-x="1512" d="M244 488v243h1024v-243h-1024z" />
<glyph unicode="&#x2014;" horiz-adv-x="2536" d="M244 488v243h2048v-243h-2048z" />
<glyph unicode="&#x202f;" horiz-adv-x="292" />
<glyph unicode="&#x205f;" horiz-adv-x="365" />
<glyph unicode="&#xe000;" horiz-adv-x="1219" d="M0 0v1219h1219v-1219h-1219z" />
</font>
</defs>
</svg>
