<?xml version="1.0" standalone="no"?>
<!DOCTYPE svg PUBLIC "-//W3C//DTD SVG 1.1//EN" "http://www.w3.org/Graphics/SVG/1.1/DTD/svg11.dtd" >
<svg xmlns="http://www.w3.org/2000/svg">
<metadata></metadata>
<defs>
<font id="titilliumitalic" horiz-adv-x="1146" >
<font-face units-per-em="2048" ascent="1536" descent="-512" />
<missing-glyph horiz-adv-x="450" />
<glyph horiz-adv-x="2048" />
<glyph horiz-adv-x="2048" />
<glyph unicode="&#xd;" horiz-adv-x="2048" />
<glyph unicode=" "  horiz-adv-x="450" />
<glyph unicode="&#x09;" horiz-adv-x="450" />
<glyph unicode="&#xa0;" horiz-adv-x="450" />
<glyph unicode="!" horiz-adv-x="387" d="M121 0l51 227h156l-52 -227h-155zM229 471l217 963h158l-237 -963h-138z" />
<glyph unicode="&#x22;" horiz-adv-x="641" d="M453 954l106 467h178l-116 -467h-168z" />
<glyph unicode="#" d="M129 369l33 131h225l90 364h-225l33 131h225l94 369h139l-94 -369h318l92 369h139l-92 -369h225l-33 -131h-225l-90 -364h225l-32 -131h-226l-90 -369h-139l90 369h-317l-91 -369h-139l90 369h-225zM526 500h318l90 364h-318z" />
<glyph unicode="$" d="M195 31l24 119q117 -19 236 -31l209 530q-69 25 -114 49t-80.5 58t-52 80.5t-16.5 109.5q0 201 128.5 315.5t344.5 114.5q49 0 74 -2l90 228h111l-96 -240q47 -7 93.5 -17.5t69.5 -16.5l23 -7l-25 -113q-104 17 -210 27l-191 -485q146 -53 203 -115.5t57 -185.5 q0 -218 -131.5 -343.5t-353.5 -125.5q-28 0 -78 4l-90 -230h-109l92 238q-52 6 -104 16t-78 16zM553 958q0 -66 35.5 -101.5t128.5 -72.5l180 459h-29q-148 0 -231.5 -73t-83.5 -212zM561 113h33q154 0 239 84t85 237q0 71 -33 107.5t-125 72.5z" />
<glyph unicode="%" d="M317 12l738 1440l102 -31l-735 -1439zM336 1155q-36 -146 5 -218.5t148 -72.5q104 0 181.5 72.5t113.5 216.5q70 285 -153 285q-108 0 -183.5 -69.5t-111.5 -213.5zM447 1016.5q-13 47.5 12 138.5q24 92 57.5 134t87.5 42q57 0 70 -43.5t-12 -134.5q-24 -95 -58 -139.5 t-90 -44.5q-54 0 -67 47.5zM696 291q70 282 295 282q107 0 149.5 -70t6.5 -214t-113.5 -216.5t-183.5 -72.5t-148 73t-6 218zM806.5 151.5q12.5 -47.5 67.5 -47.5t89.5 45t58.5 140q24 91 11.5 134.5t-68.5 43.5q-54 0 -88 -42.5t-58 -133.5q-25 -92 -12.5 -139.5z" />
<glyph unicode="&#x26;" horiz-adv-x="1300" d="M154 307q0 201 99 324t322 207q-30 56 -42.5 100t-12.5 102q0 188 104 293t283 105q293 0 293 -252q0 -156 -97.5 -262t-305.5 -185l227 -311q32 51 66 128.5t55 148.5h147q-28 -97 -80 -204t-102 -179l190 -242l-106 -94l-180 231q-99 -118 -214.5 -177.5t-258.5 -59.5 q-205 0 -296 82.5t-91 244.5zM313 322q0 -207 250 -207q104 0 203 54.5t168 149.5l-299 418q-178 -68 -250 -166t-72 -249zM678 1036q0 -116 59 -202q168 70 236.5 148t68.5 196q0 129 -141 129q-110 0 -166.5 -75t-56.5 -196z" />
<glyph unicode="'" horiz-adv-x="331" d="M315 954l107 467h145l-116 -467h-136z" />
<glyph unicode="(" horiz-adv-x="464" d="M166 231q0 136 25.5 281t66.5 268.5t90 241.5t98.5 208.5t90.5 159.5t67 106l25 36h145q-18 -28 -48.5 -77.5t-108 -201t-137 -299.5t-108 -349t-48.5 -374q0 -128 7.5 -249.5t14.5 -178.5l8 -57h-145q-5 20 -12 58t-19 164.5t-12 262.5z" />
<glyph unicode=")" horiz-adv-x="464" d="M-12 -242q18 28 48.5 77.5t108 201t137 299.5t108 349t48.5 374q0 128 -7.5 249.5t-14.5 178.5l-8 57h145q5 -20 12 -58t19 -164.5t12 -262.5t-25.5 -281t-66.5 -268.5t-90 -241.5t-98.5 -208.5t-90.5 -159.5t-67 -106l-25 -36h-145z" />
<glyph unicode="*" horiz-adv-x="845" d="M356 938l222 162l-218 157l62 86l219 -159l82 258l102 -33l-84 -260h267v-102h-269l82 -256l-98 -31l-86 258l-219 -162z" />
<glyph unicode="+" d="M231 444v140h387v399h142v-399h391v-140h-391v-403h-142v403h-387z" />
<glyph unicode="," horiz-adv-x="374" d="M-25 -264l201 491h170l-246 -491h-125z" />
<glyph unicode="-" horiz-adv-x="690" d="M201 477l35 141h505l-34 -141h-506z" />
<glyph unicode="." horiz-adv-x="344" d="M94 0l53 227h156l-53 -227h-156z" />
<glyph unicode="/" horiz-adv-x="858" d="M86 31l875 1417l143 -53l-875 -1415z" />
<glyph unicode="0" d="M209 373q0 123 19 245t55 233.5t91 206.5t123 165.5t156.5 110.5t186.5 40q205 0 307 -102t102 -299q0 -154 -28 -300.5t-83 -271.5t-130.5 -219.5t-177 -148t-216.5 -53.5q-200 0 -302.5 100t-102.5 293zM369 391q0 -274 245 -274q90 0 168.5 52.5t134 138.5t95.5 196 t59 225.5t19 226.5q0 281 -252 281q-91 0 -170 -56t-132.5 -145.5t-92 -202.5t-56.5 -226t-18 -216z" />
<glyph unicode="1" d="M473 1077l492 277h135l-309 -1354h-156l266 1163l-387 -213z" />
<glyph unicode="2" d="M137 0l31 129l524 440q96 81 155.5 135.5t115 117t81 117.5t25.5 110q0 102 -62.5 145t-195.5 43q-69 0 -162 -10.5t-151 -21.5l-58 -11l17 121q23 7 62 16.5t141.5 26t183.5 16.5q193 0 289 -72.5t96 -224.5q0 -81 -27 -155t-83 -142.5t-114.5 -123.5t-148.5 -126 l-494 -393h674l-32 -137h-867z" />
<glyph unicode="3" d="M147 49l35 117q221 -49 377 -49q161 0 271 87.5t110 233.5q0 192 -238 195h-264l31 125l266 4q68 1 140.5 37.5t126 106.5t53.5 151q0 94 -56.5 137t-179.5 43q-80 0 -175 -9.5t-150 -19.5l-56 -10l15 115q22 7 60 17t143 27t194 17q187 0 275.5 -69t88.5 -209 q0 -264 -276 -377q81 -38 121.5 -99.5t40.5 -173.5q0 -142 -73 -249t-198 -162t-282 -55q-88 0 -188 17t-156 35z" />
<glyph unicode="4" d="M158 254l28 117l643 981h175l-650 -965h471l103 442h155l-102 -442h164l-33 -133h-162l-59 -258h-156l60 258h-637z" />
<glyph unicode="5" d="M143 51l39 125q229 -57 389 -57q170 0 289 118.5t119 286.5q0 187 -236 187q-64 0 -143 -21.5t-126 -43.5l-48 -21l-123 24l215 703h772l-30 -138h-644l-151 -454q21 10 55.5 24.5t120.5 39t147 24.5q168 0 259.5 -73.5t91.5 -225.5q0 -158 -74 -288.5t-203 -204.5 t-284 -74q-92 0 -200.5 17t-171.5 35z" />
<glyph unicode="6" d="M229 444q0 97 20 201t58.5 208.5t101 198t141 165.5t185.5 114.5t228 42.5q71 0 154.5 -10t130.5 -20l48 -11l-47 -129q-163 33 -323 33q-82 0 -153 -29t-122 -74.5t-94 -110.5t-70.5 -128t-48.5 -135q21 10 57.5 24.5t133.5 39t176 24.5q182 0 271 -86t89 -242 q0 -244 -144 -392t-400 -148q-187 0 -289.5 118.5t-102.5 345.5zM391 440q0 -148 59 -235.5t177 -87.5q182 0 280.5 105t98.5 270q0 113 -59 166t-187 53q-76 0 -163 -20.5t-136 -40.5l-49 -21q-21 -78 -21 -189z" />
<glyph unicode="7" d="M299 20l784 1119l17 73h-658l33 140h815l-55 -234l-793 -1145z" />
<glyph unicode="8" d="M135 270q0 84 28.5 155.5t79 124.5t106 90.5t122.5 66.5q-88 50 -117.5 100t-29.5 129q0 81 34 156.5t100.5 139.5t181 103t261.5 39q205 0 306.5 -72.5t101.5 -199.5q0 -133 -83.5 -239t-236.5 -156q55 -23 92 -52t55.5 -63.5t25.5 -68t7 -74.5q0 -37 -9 -78t-30 -87.5 t-53 -89.5t-81.5 -83t-111.5 -69.5t-147 -47t-184 -17.5q-418 0 -418 293zM305 297q0 -182 283 -182q86 0 158 21.5t119 55t79.5 76t47 84t14.5 78.5q0 88 -44 128.5t-149 72.5h-205q-58 -17 -108.5 -42.5t-96 -65t-72 -97.5t-26.5 -129zM483 948q0 -64 35 -107t123 -77h205 q35 10 71.5 26t77 42.5t72 57t52 73t20.5 88.5q0 94 -65.5 140t-207.5 46q-99 0 -175.5 -25.5t-120 -68t-65.5 -92t-22 -103.5z" />
<glyph unicode="9" d="M160 23l53 137q147 -35 307 -35q177 0 305 115.5t187 343.5q-244 -74 -379 -74q-190 0 -276 97t-56 296q22 128 95.5 233.5t198.5 171.5t279 66q216 0 296 -164.5t28 -468.5q-29 -198 -95.5 -346.5t-162 -238t-210 -133t-247.5 -43.5q-68 0 -148.5 10.5t-127.5 21.5z M459 911q-26 -135 30.5 -197.5t192.5 -62.5q59 0 151 16.5t154 32.5l62 17q33 156 27 270t-66 178t-170 64q-142 0 -249.5 -86t-131.5 -232z" />
<glyph unicode=":" horiz-adv-x="350" d="M96 0l54 227h155l-53 -227h-156zM252 676l53 227h156l-53 -227h-156z" />
<glyph unicode=";" horiz-adv-x="411" d="M-4 -264h125l246 491h-170zM291 676l53 227h156l-54 -227h-155z" />
<glyph unicode="&#x3c;" d="M217 446v136l854 415v-159l-694 -322l694 -328v-161z" />
<glyph unicode="=" d="M250 254v141h885v-141h-885zM250 633v141h885v-141h-885z" />
<glyph unicode="&#x3e;" d="M309 27v161l695 328l-695 322v159l854 -415v-136z" />
<glyph unicode="?" horiz-adv-x="847" d="M289 2l51 238h158l-54 -238h-155zM367 1262l12 124q180 52 315 52q157 0 247.5 -64.5t90.5 -204.5q0 -62 -11.5 -110t-32 -88.5t-65 -87t-93 -87.5t-134.5 -108q-140 -109 -159 -207l-17 -80h-145q2 68 14 127q22 126 207 267q86 68 130 106.5t80.5 82.5t49 83.5 t12.5 91.5q0 76 -52.5 107.5t-153.5 31.5q-55 0 -128.5 -9t-119.5 -18z" />
<glyph unicode="@" horiz-adv-x="1910" d="M182 156.5q-9 96.5 0 191.5t33 195q61 257 154.5 434.5t229 289t308.5 161t402 49.5q195 0 335.5 -46t219.5 -124t115 -190.5t32 -237t-39 -271.5q-38 -156 -79 -266.5t-84 -181t-95.5 -110.5t-106 -55t-124.5 -15q-177 0 -201 114q-80 -40 -193.5 -77t-197.5 -37 q-68 0 -118 20t-77 57.5t-42.5 81.5t-16.5 100t3 103t13 100q111 602 521 602q111 0 399 -51q-37 -146 -100 -430.5t-66 -351.5q-1 -52 25 -69t84 -17q50 0 88 19.5t77.5 72t76 154.5t73.5 258q21 89 30 163.5t5.5 149t-25 133t-64.5 109.5t-109 85t-163.5 53t-222.5 19 q-383 0 -598.5 -188t-318.5 -610q-33 -138 -38.5 -254t24 -223t97.5 -180.5t192.5 -117.5t299.5 -44q34 0 103.5 4.5t122.5 9.5l53 4l-27 -135q-197 -19 -289 -19q-147 0 -265 29.5t-198.5 80.5t-136.5 124t-84 155.5t-37 179zM790.5 320.5q-2.5 -54.5 8.5 -101.5t43.5 -74 t85.5 -28q135 0 327 106q4 49 50.5 262.5t91.5 397.5q-124 28 -230 28q-75 0 -133.5 -32.5t-101 -97t-72 -146.5t-53.5 -195q-14 -65 -16.5 -119.5z" />
<glyph unicode="A" horiz-adv-x="1134" d="M49 0l707 1417h305l29 -1417h-156l-12 362h-531l-182 -362h-160zM457 500h467l-15 778h-61z" />
<glyph unicode="B" horiz-adv-x="1181" d="M160 0l325 1417h457q171 0 255.5 -65.5t84.5 -212.5q0 -149 -73 -252t-191 -154q88 -34 130 -92t42 -152q0 -223 -141.5 -356t-401.5 -133h-487zM348 137h332q163 0 254.5 94t91.5 254q0 94 -62 132t-173 38h-324zM498 791h315q136 0 222.5 93t86.5 232q0 90 -48.5 127 t-158.5 37h-305z" />
<glyph unicode="C" horiz-adv-x="1032" d="M229 385q0 95 13 195t41 203.5t68.5 198.5t99.5 178.5t130.5 145t164.5 97t198 35.5q72 0 157 -12t134 -24l49 -11l-35 -123q-157 30 -313 30q-103 0 -192.5 -56t-152.5 -148t-108.5 -210t-67.5 -243.5t-22 -247.5q0 -138 61 -206t191 -68q73 0 156.5 8.5t130.5 17.5 l47 9l-10 -129q-182 -45 -344 -45q-198 0 -297 102.5t-99 302.5z" />
<glyph unicode="D" horiz-adv-x="1243" d="M160 0l327 1417h455q194 0 293.5 -100.5t99.5 -321.5q0 -110 -18.5 -224t-54 -226t-93.5 -210t-131.5 -173t-174 -118.5t-214.5 -43.5h-489zM350 139h322q97 0 181 57t141 148.5t98 206t60 228t19 216.5q0 150 -61.5 216.5t-198.5 66.5h-301z" />
<glyph unicode="E" horiz-adv-x="1034" d="M160 0l325 1417h791l-33 -139h-633l-112 -487h520l-33 -140h-518l-119 -512h633l-31 -139h-790z" />
<glyph unicode="F" horiz-adv-x="987" d="M160 0l327 1417h773l-33 -139h-617l-127 -559h525l-33 -137h-524l-136 -582h-155z" />
<glyph unicode="G" horiz-adv-x="1171" d="M231 381q0 128 19.5 253t57.5 244t99.5 220t140 177.5t185 119.5t228.5 43q92 0 193.5 -16t157.5 -32l56 -16l-39 -119q-205 43 -389 43q-110 0 -202.5 -59t-154.5 -153.5t-105.5 -216.5t-63 -246t-19.5 -244q0 -260 281 -260q51 0 113 7.5t99 15.5l36 8l106 450h-215 l31 135h373l-164 -700q-20 -6 -56 -15t-140 -24.5t-200 -15.5q-210 0 -319 99.5t-109 301.5z" />
<glyph unicode="H" horiz-adv-x="1277" d="M160 0l327 1417h156l-145 -633h645l145 633h158l-328 -1417h-157l149 647h-645l-150 -647h-155z" />
<glyph unicode="I" horiz-adv-x="475" d="M160 0l327 1417h156l-328 -1417h-155z" />
<glyph unicode="J" horiz-adv-x="542" d="M14 -143l25 139q45 0 74 3t55 14t41.5 27t31 47.5t26 69t24.5 97.5l270 1163h156l-271 -1175q-15 -67 -27.5 -111t-28.5 -87t-32 -68.5t-40 -48.5t-50.5 -35t-65.5 -21t-83 -11.5t-105 -2.5z" />
<glyph unicode="K" horiz-adv-x="1067" d="M160 0l327 1417h156l-151 -655l186 6l502 649h176l-551 -715l225 -702h-166l-200 629l-205 -6l-144 -623h-155z" />
<glyph unicode="L" horiz-adv-x="886" d="M160 0l327 1417h156l-295 -1278h557l-31 -139h-714z" />
<glyph unicode="M" horiz-adv-x="1597" d="M160 0l327 1417h265l90 -1200l655 1200h268l-327 -1417h-156l297 1278h-23l-667 -1227h-164l-94 1227h-21l-295 -1278h-155z" />
<glyph unicode="N" horiz-adv-x="1292" d="M160 0l327 1417h279l213 -1255h39l289 1255h153l-327 -1417h-269l-221 1264h-41l-293 -1264h-149z" />
<glyph unicode="O" horiz-adv-x="1286" d="M233 403q0 262 85 503.5t241 383.5q161 148 377 148q218 0 329 -103.5t111 -320.5q0 -179 -36 -348t-114 -319.5t-190 -242.5q-152 -124 -368 -124q-226 0 -330.5 98.5t-104.5 324.5zM395 414q0 -161 65.5 -228t225.5 -67q136 0 238 82q94 77 161 217t97 289.5t30 296.5 q0 154 -68 224t-220 70q-131 0 -224 -75q-96 -79 -168 -224.5t-104.5 -296.5t-32.5 -288z" />
<glyph unicode="P" horiz-adv-x="1120" d="M160 0l327 1417h447q182 0 266 -82.5t84 -253.5q0 -178 -62.5 -314t-188 -214t-298.5 -78h-309l-111 -475h-155zM459 614h301q118 0 201 64.5t121 167t38 233.5q0 101 -47.5 150t-157.5 49h-305z" />
<glyph unicode="Q" horiz-adv-x="1286" d="M233 403q0 262 85 503.5t241 383.5q161 148 377 148q218 0 329 -103.5t111 -320.5q0 -179 -36 -348t-114 -319.5t-190 -242.5q-41 -35 -94 -61l98 -291l-149 -49l-92 291q-72 -14 -131 -14q-226 0 -330.5 98.5t-104.5 324.5zM395 414q0 -161 65.5 -228t225.5 -67 q136 0 238 82q94 77 161 217t97 289.5t30 296.5q0 154 -68 224t-220 70q-131 0 -224 -75q-96 -79 -168 -224.5t-104.5 -296.5t-32.5 -288z" />
<glyph unicode="R" horiz-adv-x="1155" d="M160 0l327 1417h433q187 0 277.5 -79.5t90.5 -262.5q0 -116 -33 -211t-88 -156.5t-116 -100t-127 -56.5l155 -551h-157l-146 530h-336l-125 -530h-155zM471 668h301q159 0 255.5 113t96.5 290q0 114 -51.5 161.5t-169.5 47.5h-291z" />
<glyph unicode="S" horiz-adv-x="1021" d="M115 33l26 123q237 -37 391 -37q162 0 251 87.5t89 248.5q0 85 -45 124.5t-186 88.5q-66 23 -110 42.5t-85 46.5t-64 58.5t-36.5 74.5t-13.5 99q0 210 134 329.5t361 119.5q84 0 179 -14.5t148 -29.5l54 -14l-26 -116q-218 36 -361 36q-155 0 -242 -77t-87 -222 q0 -29 5 -50.5t20 -40.5t30 -31.5t49.5 -28.5t63.5 -27.5t85 -31.5q163 -58 226 -123.5t63 -198.5q0 -228 -138 -358.5t-370 -130.5q-87 0 -189.5 13t-162.5 27z" />
<glyph unicode="T" horiz-adv-x="960" d="M315 1278l33 139h916l-33 -139h-381l-295 -1278h-156l295 1278h-379z" />
<glyph unicode="U" horiz-adv-x="1216" d="M231 274q0 97 23 187l221 956h158l-225 -973q-21 -86 -21 -149q0 -93 67.5 -134.5t194.5 -41.5q161 0 242.5 75.5t118.5 237.5l227 985h158l-228 -985q-54 -233 -178 -342.5t-352 -109.5q-191 0 -298.5 73t-107.5 221z" />
<glyph unicode="V" horiz-adv-x="1116" d="M371 1417h157l7 -1278h92l604 1278h158l-676 -1417h-324z" />
<glyph unicode="W" horiz-adv-x="1697" d="M328 0l55 1417h156l-64 -1272h53l551 1252h172l-39 -1252h54l536 1272h158l-610 -1417h-273l39 1167l-508 -1167h-280z" />
<glyph unicode="X" horiz-adv-x="1050" d="M25 0l573 711l-227 706h164l184 -590l459 590h172l-566 -715l230 -702h-162l-188 588l-465 -588h-174z" />
<glyph unicode="Y" horiz-adv-x="1009" d="M348 1417h160l166 -661l469 661h170l-600 -811l-142 -606h-149l143 618z" />
<glyph unicode="Z" horiz-adv-x="1013" d="M78 0l45 203l917 1020l13 55h-676l33 139h852l-50 -209l-917 -1020l-12 -49h680l-33 -139h-852z" />
<glyph unicode="[" horiz-adv-x="565" d="M51 -250l416 1780h399l-30 -133h-244l-354 -1514h243l-35 -133h-395z" />
<glyph unicode="\" horiz-adv-x="872" d="M385 1419l162 17l268 -1420l-160 -16z" />
<glyph unicode="]" horiz-adv-x="565" d="M-4 -248l31 133h243l355 1514h-244l35 133h395l-416 -1780h-399z" />
<glyph unicode="^" d="M238 653l380 699h138l391 -699h-164l-295 547l-287 -547h-163z" />
<glyph unicode="_" horiz-adv-x="1181" d="M61 -311l33 149h918l-35 -149h-916z" />
<glyph unicode="`" horiz-adv-x="1060" d="M573 1397l74 121l379 -191l-68 -106z" />
<glyph unicode="a" horiz-adv-x="1024" d="M182 285q0 98 20 201.5t62.5 203.5t102 178.5t145.5 127t186 48.5q57 0 162 -13t182 -25l76 -13l-155 -665q-14 -57 -28.5 -138t-22.5 -134l-7 -52l-149 -6q29 176 37 219q-7 -10 -19.5 -26t-51.5 -56.5t-78.5 -72t-94.5 -57t-105 -25.5q-133 0 -197.5 79.5t-64.5 225.5z M340 285q0 -86 34.5 -129t117.5 -43q36 0 83.5 27.5t89.5 67t78.5 79t58.5 67.5l21 27l117 502q-144 28 -240 28q-85 0 -156 -61.5t-114 -157t-66.5 -202t-23.5 -205.5z" />
<glyph unicode="b" horiz-adv-x="1021" d="M141 31l332 1439h152l-133 -581q6 6 17 16.5t46 37.5t70 47t84 37t94 17q80 0 135 -23.5t84 -68t41 -97.5t12 -124q0 -74 -13.5 -155t-39.5 -166t-69.5 -161.5t-99 -137t-133 -96t-165.5 -35.5q-75 0 -178.5 12.5t-169.5 25.5zM317 139q144 -26 234 -26q79 0 144.5 49 t105.5 121t67.5 158.5t38.5 157.5t11 122q0 45 -5.5 75.5t-21.5 58.5t-49 42t-84 14q-37 0 -81.5 -18t-81.5 -44t-69 -52t-50 -44l-19 -18z" />
<glyph unicode="c" horiz-adv-x="829" d="M188 291q0 151 33.5 284t98 239t169.5 168t238 62q52 0 116 -9.5t102 -18.5l38 -10l-39 -119q-133 24 -221 24q-94 0 -168 -51.5t-118.5 -137.5t-67.5 -189t-23 -214q0 -103 49.5 -154.5t161.5 -51.5q36 0 93 7.5t96 15.5l40 7l-10 -120q-141 -43 -270 -43 q-156 0 -237 80.5t-81 230.5z" />
<glyph unicode="d" horiz-adv-x="1024" d="M182 279q0 87 15.5 177t44 175t73.5 160t100 131.5t127 89t152 32.5q53 0 121 -9t110 -18l42 -9l108 462h154l-342 -1470h-148l39 182q-6 -8 -18 -21.5t-48.5 -48.5t-74 -61.5t-92 -48.5t-105.5 -22q-258 0 -258 299zM340 281q0 -168 147 -168q38 0 86.5 25t89.5 60.5 t77 70.5t56 60l21 25l123 527q-135 30 -246 30q-67 0 -125.5 -41t-99.5 -107.5t-70.5 -150t-44 -168.5t-14.5 -163z" />
<glyph unicode="e" horiz-adv-x="946" d="M186 291q0 108 20 213.5t64 203.5t107 172.5t156 119t204 44.5q144 0 223.5 -60.5t79.5 -188.5q0 -183 -137 -255.5t-436 -72.5h-105q-22 -80 -22 -166q0 -90 53.5 -138t143.5 -48q68 0 152 11.5t135 22.5l50 11l-12 -121q-20 -7 -55.5 -16.5t-132 -26t-178.5 -16.5 q-150 0 -230 78t-80 233zM383 588h113q209 0 301 44.5t92 160.5q0 65 -40 93.5t-118 28.5q-253 0 -348 -327z" />
<glyph unicode="f" horiz-adv-x="632" d="M68 -455l311 1344h-117l33 135h113l22 88q48 208 125 293.5t223 85.5q35 0 78 -7.5t68 -14.5l26 -7l-28 -119q-82 15 -148 15q-77 0 -117 -57t-75 -191l-21 -86h275l-33 -133h-271l-206 -891l-125 -455h-133z" />
<glyph unicode="g" horiz-adv-x="958" d="M37 -213q0 55 24 104.5t67.5 88.5t84.5 66t94 54q-33 33 -33 88q0 25 11.5 55t28 54.5t33.5 45t29 32.5l11 12q-141 66 -141 246q0 75 27.5 147.5t78 131.5t130.5 95.5t175 36.5q47 0 96.5 -8t74.5 -16l26 -8l303 12l-31 -131h-182q35 -60 35 -141q0 -56 -17 -112 t-53 -108.5t-86 -93.5t-121.5 -65.5t-154.5 -24.5l-68 6q-63 -82 -63 -135q0 -34 39.5 -49t150.5 -29q162 -21 235.5 -75t73.5 -168q0 -158 -140 -268.5t-372 -110.5q-171 0 -268.5 70t-97.5 198zM182 -180q0 -76 58 -123t170 -47q94 0 174 26.5t131 81t51 127.5 q0 62 -45 88.5t-156 40.5q-120 13 -178 33q-81 -42 -143 -103t-62 -124zM391 639q0 -164 170 -164q67 0 121.5 27t86 68.5t48.5 86.5t17 86q0 87 -43.5 129.5t-141.5 42.5q-79 0 -140 -44.5t-89.5 -106t-28.5 -125.5z" />
<glyph unicode="h" horiz-adv-x="1021" d="M135 0l340 1470h154l-146 -626q6 8 18 21.5t48.5 48t73.5 61t90 48t102 21.5q120 0 181 -69.5t61 -188.5q0 -88 -43 -270l-119 -516h-152l119 510q37 174 37 246q0 153 -137 153q-38 0 -84.5 -24t-86 -57.5t-74 -67.5t-53.5 -58l-20 -24l-155 -678h-154z" />
<glyph unicode="i" horiz-adv-x="421" d="M135 0l236 1024h153l-237 -1024h-152zM418 1237l45 184h153l-43 -184h-155z" />
<glyph unicode="j" horiz-adv-x="421" d="M-178 -358q68 35 105 55.5t73 47t52 45t33.5 53t26.5 67t23 90.5l236 1024h153l-237 -1024q-19 -84 -32 -131t-37 -95.5t-45.5 -73.5t-69 -58.5t-96 -58t-136.5 -64.5zM420 1233l43 184h153l-41 -184h-155z" />
<glyph unicode="k" horiz-adv-x="911" d="M135 0l340 1470h154l-199 -856l131 7l371 403h178l-434 -475l194 -549h-161l-172 489l-138 -4l-110 -485h-154z" />
<glyph unicode="l" horiz-adv-x="440" d="M143 0l340 1470h152l-338 -1470h-154z" />
<glyph unicode="m" horiz-adv-x="1587" d="M135 0l236 1024h149l-37 -178q6 8 17.5 21.5t48 47.5t73.5 60t91 47.5t104 21.5q41 0 76 -10t57 -26t39.5 -35.5t26.5 -39t15 -35.5t7 -26l2 -10l19.5 19.5t51 44t77 55.5t92.5 43.5t102 19.5q118 0 179 -69.5t61 -188.5q0 -80 -41 -270l-119 -516h-153l118 510 q39 161 39 244q0 74 -34 114.5t-101 40.5q-36 0 -78 -19t-77 -46t-65 -54t-47 -46l-17 -19q-6 -96 -35 -209l-119 -516h-154l119 510q39 161 39 246q0 73 -35 113t-104 40q-38 0 -84 -23.5t-85 -57.5t-73 -67.5t-53 -56.5l-19 -24l-157 -680h-152z" />
<glyph unicode="n" horiz-adv-x="1019" d="M135 0l236 1024h149l-37 -178q6 8 17.5 21.5t48 47.5t73.5 60t89.5 47.5t101.5 21.5q120 0 181 -69.5t61 -188.5q0 -97 -41 -266l-121 -520h-152l119 510q39 161 39 246q0 153 -139 153q-38 0 -85 -23.5t-86 -57.5t-72.5 -67.5t-52.5 -56.5l-20 -24l-157 -680h-152z" />
<glyph unicode="o" horiz-adv-x="1011" d="M186 315q0 191 64 357t183.5 269t268.5 103q174 0 264.5 -86.5t90.5 -261.5q0 -113 -22.5 -218.5t-67 -195.5t-106.5 -157.5t-145.5 -106t-178.5 -38.5q-174 0 -262.5 81t-88.5 254zM340 313q0 -97 49.5 -148.5t147.5 -51.5q109 0 194 82.5t128.5 215t43.5 287.5 q0 99 -50.5 156t-150.5 57q-106 0 -190 -86t-128 -221.5t-44 -290.5z" />
<glyph unicode="p" horiz-adv-x="1021" d="M31 -455l340 1479h149l-39 -182q7 8 18.5 21.5t48.5 48.5t74 61.5t89 48.5t100 22q135 0 200.5 -78t65.5 -223q0 -85 -15 -173.5t-43.5 -173.5t-73 -160.5t-100 -132.5t-128 -90t-152.5 -33q-55 0 -123.5 9.5t-109.5 18.5l-41 10l-109 -473h-151zM319 143 q133 -30 246 -30q83 0 153 63t112.5 159t66 202t23.5 200q0 174 -152 174q-37 0 -84 -25t-88 -60.5t-76.5 -70.5t-56.5 -60l-21 -25z" />
<glyph unicode="q" horiz-adv-x="1019" d="M180 281q0 103 21.5 209t65 205.5t103 177t143.5 124.5t179 47q68 0 174 -13t178 -25l72 -13l-332 -1435h-151l143 624q-6 -8 -17.5 -21.5t-47.5 -48.5t-73.5 -61.5t-90.5 -48.5t-103 -22q-130 0 -197 79t-67 222zM338 287q0 -174 154 -174q37 0 84 24.5t87.5 59.5 t76 70.5t56.5 60.5l21 24l121 529q-131 30 -246 30q-80 0 -149 -61t-112.5 -155t-68 -201.5t-24.5 -206.5z" />
<glyph unicode="r" horiz-adv-x="647" d="M135 0l238 1024h151l-37 -152q21 15 58 39t135 72t178 64l-41 -158q-58 -15 -147.5 -53.5t-149.5 -69.5l-61 -31l-170 -735h-154z" />
<glyph unicode="s" horiz-adv-x="878" d="M104 27l29 118q188 -32 313 -32q122 0 196.5 53.5t74.5 155.5q0 25 -8 42.5t-19.5 29.5t-39.5 22.5t-53.5 17.5t-74.5 19q-144 36 -207 81.5t-63 141.5q0 164 114.5 266t288.5 102q73 0 157.5 -10.5t132.5 -21.5l48 -11l-30 -118q-195 28 -326 28q-104 0 -167.5 -57.5 t-63.5 -140.5q0 -50 36.5 -74.5t151.5 -54.5q62 -15 100 -27t76.5 -30.5t58.5 -41t32.5 -56t12.5 -77.5q0 -181 -125 -276.5t-321 -95.5q-70 0 -151 12t-127 24z" />
<glyph unicode="t" horiz-adv-x="651" d="M231 174q0 75 33 211l119 506h-135l35 133h133l71 303h154l-74 -303h287l-33 -133h-286l-119 -514q-25 -102 -25 -170q0 -94 103 -94q24 0 63 3t67 6l27 3l-10 -117q-107 -28 -199 -28q-101 0 -156 51.5t-55 142.5z" />
<glyph unicode="u" horiz-adv-x="1019" d="M201 238q0 97 41 266l120 520h152l-119 -510q-39 -161 -39 -246q0 -73 35.5 -113t104.5 -40q38 0 84.5 23.5t86 57.5t73 67.5t52.5 56.5l19 24l158 680h151l-235 -1024h-150l37 178q-6 -8 -17.5 -21.5t-48 -47.5t-73.5 -60t-89.5 -47.5t-101.5 -21.5q-118 0 -179.5 69.5 t-61.5 188.5z" />
<glyph unicode="v" horiz-adv-x="929" d="M285 1024h151l17 -893h63l445 893h157l-520 -1024h-287z" />
<glyph unicode="w" horiz-adv-x="1497" d="M281 0l14 1024h154l-19 -891h39l420 871h180l8 -871h39l402 891h155l-465 -1024h-272l-6 805l-383 -805h-266z" />
<glyph unicode="x" horiz-adv-x="858" d="M39 0l422 512l-180 512h157l137 -403l320 403h164l-428 -524l182 -500h-160l-133 395l-315 -395h-166z" />
<glyph unicode="y" horiz-adv-x="929" d="M215 -453l236 453h-140l-26 1024h151l17 -893h61l447 893h157l-747 -1477h-156z" />
<glyph unicode="z" horiz-adv-x="856" d="M78 0l24 131l697 760h-516l32 133h699l-29 -131l-698 -760h522l-31 -133h-700z" />
<glyph unicode="{" horiz-adv-x="641" d="M170 584l29 121q69 18 113 38.5t70.5 50.5t39.5 62t24 84q5 25 18 92.5t24 121t18 73.5q51 163 150.5 235.5t285.5 79.5l-24 -139q-130 -7 -193.5 -64.5t-89.5 -171.5q-3 -14 -13 -70.5t-19 -107t-13 -67.5q-29 -127 -83 -187t-165 -96q63 -29 96 -71t33 -113 q0 -38 -49 -208.5t-49 -226.5q0 -141 182 -141l-39 -139q-145 3 -220 62t-75 173q0 63 48 235.5t48 207.5q0 62 -34.5 100t-112.5 66z" />
<glyph unicode="|" horiz-adv-x="638" d="M360 -455v1925h152v-1925h-152z" />
<glyph unicode="}" horiz-adv-x="638" d="M-8 -266l24 139q130 7 193.5 64.5t89.5 171.5q3 14 13 70.5t19 107t13 67.5q29 127 83 187t165 96q-63 29 -96 71t-33 113q0 38 49 208t49 226q0 142 -182 142l39 139q145 -3 220 -62.5t75 -173.5q0 -63 -48.5 -235t-48.5 -207q0 -62 35 -100t113 -66l-29 -121 q-69 -18 -113 -38.5t-71 -50.5t-40 -62t-24 -84q-6 -26 -18 -93t-23 -120.5t-18 -73.5q-51 -163 -150.5 -235.5t-285.5 -79.5z" />
<glyph unicode="~" d="M260 557q5 4 14.5 11.5t37 26.5t55 33t64 26t67.5 12q60 0 212 -62.5t195 -62.5q35 0 87 23.5t87 47.5l35 23l21 -125q-5 -5 -13.5 -12t-35 -26.5t-52.5 -34t-62 -26.5t-67 -12q-49 0 -133 31.5t-162.5 63.5t-113.5 32q-37 0 -91 -24t-89 -48l-35 -24z" />
<glyph unicode="&#xa1;" horiz-adv-x="364" d="M8 -410l238 963h137l-217 -963h-158zM285 797l51 227h156l-52 -227h-155z" />
<glyph unicode="&#xa2;" d="M320 382q5 59 22 126q55 212 169.5 323t276.5 117l58 244h129l-60 -246l189 -20l-41 -135q-166 14 -240 14q-255 0 -329 -297q-17 -70 -19.5 -117t14 -89t65.5 -62.5t132 -20.5q37 0 100.5 3t108.5 6l45 3l-29 -133q-116 -14 -198 -16l-58 -246h-129l56 238 q-78 2 -133 27.5t-83.5 66.5t-39.5 98t-6 116z" />
<glyph unicode="&#xa3;" d="M164 0l31 133h196l133 594h-153l32 135h154l25 105q21 89 41 149.5t50.5 116.5t69.5 88t95.5 51t130.5 19q48 0 116.5 -8.5t112.5 -17.5l45 -9l-33 -119q-143 16 -243 16q-33 0 -60.5 -8.5t-47 -19.5t-37 -35.5t-28 -43.5t-23 -58t-19 -63.5t-19.5 -74.5l-20 -88h397 l-31 -135h-397l-135 -594h282l156 35l-2 -131l-160 -37h-659z" />
<glyph unicode="&#xa4;" d="M238 170l143 143q-60 92 -60 203t60 203l-143 143l106 109l143 -146q94 60 205 60t203 -60l143 146l109 -109l-146 -145q60 -92 60 -202t-60 -202l146 -143l-109 -109l-143 146q-92 -61 -203 -61t-205 61l-143 -146zM466 516q0 -94 66 -160q64 -64 159 -64t161 64 q64 66 64 160t-64 160q-66 64 -161 64t-159 -64q-66 -66 -66 -160z" />
<glyph unicode="&#xa5;" d="M217 328l33 137h354l33 137l-8 33h-340l33 137h256l-234 582h168l231 -572l474 572h202l-489 -582h250l-31 -137h-328l-28 -35l-31 -135h348l-33 -137h-348l-76 -328h-155l75 328h-356z" />
<glyph unicode="&#xa6;" horiz-adv-x="651" d="M367 319h151v-774h-151v774zM367 705v765h151v-765h-151z" />
<glyph unicode="&#xa7;" horiz-adv-x="962" d="M68 -270l45 135q207 -29 311 -29q127 0 205 75.5t78 162.5q0 62 -42 86.5t-190 56.5q-145 28 -204.5 85t-59.5 149q0 59 23 118.5t56 102.5t58.5 69t40.5 37q-41 48 -41 156q0 70 29.5 138.5t85 127t146.5 95t202 36.5q56 0 133 -8.5t126 -17.5l48 -9l-37 -135 q-203 29 -295 29q-136 0 -209 -63t-73 -169q0 -31 11.5 -54t26.5 -36.5t50.5 -25.5t60.5 -17.5t80 -15.5q256 -49 256 -229q0 -50 -20 -106.5t-51.5 -105t-52 -76t-38.5 -48.5q23 -29 29 -55t6 -66q0 -39 -10.5 -87.5t-42 -110t-80.5 -111t-135 -83.5t-195 -34 q-56 0 -138.5 8.5t-137.5 16.5zM369 496q0 -57 38.5 -87t139.5 -49q129 -28 178 -55q18 15 62 98.5t44 141.5q0 50 -42.5 80.5t-143.5 48.5q-137 27 -164 47q-112 -140 -112 -225z" />
<glyph unicode="&#xa8;" horiz-adv-x="1392" d="M496 1270l43 190h127l-45 -190h-125zM870 1270l41 190h127l-45 -190h-123z" />
<glyph unicode="&#xa9;" horiz-adv-x="1318" d="M326 889q0 156 69 284t192.5 201.5t276.5 73.5q156 0 280.5 -75.5t192.5 -203t68 -280.5q0 -156 -68 -283t-192.5 -201.5t-282.5 -74.5q-152 0 -275 74.5t-192 202.5t-69 282zM416 889q0 -196 127.5 -332.5t318.5 -136.5q128 0 232.5 63t162.5 170t58 236 q0 128 -58.5 236t-162.5 171.5t-230 63.5q-191 0 -319.5 -137.5t-128.5 -333.5zM633 891q0 167 53 243t188 76q38 0 77 -5t59 -10l20 -5l-6 -109q-79 13 -145 13q-75 0 -99 -46.5t-24 -156.5q0 -108 26.5 -158.5t96.5 -50.5q27 0 63.5 3.5t59.5 6.5l22 4l6 -106 q-76 -25 -160 -25q-132 0 -184.5 77t-52.5 249z" />
<glyph unicode="&#xaa;" horiz-adv-x="704" d="M283 920q22 86 76.5 128t158.5 48l178 12l13 45q10 45 -8 63.5t-70 18.5q-35 0 -94.5 -3.5t-101.5 -7.5l-42 -3l17 98q152 31 254 31q116 0 160.5 -45t19.5 -158l-66 -283q12 -26 51 -33l-26 -100q-79 0 -109 12t-49 41q-124 -53 -233 -53q-79 0 -114 51.5t-15 137.5z M418 922q-17 -80 55 -80q32 0 74.5 8.5t68.5 17.5l27 9l33 137l-154 -10q-46 -3 -70.5 -22t-33.5 -60z" />
<glyph unicode="&#xab;" horiz-adv-x="913" d="M164 469l29 78l436 291l-45 -158l-269 -178l181 -197l-41 -141zM553 469l29 78l436 291l-45 -158l-268 -178l180 -197l-41 -141z" />
<glyph unicode="&#xac;" d="M252 561v139h876v-460h-143v321h-733z" />
<glyph unicode="&#xad;" horiz-adv-x="690" d="M201 477l35 141h505l-34 -141h-506z" />
<glyph unicode="&#xae;" horiz-adv-x="1318" d="M326 889q0 156 69 284t192.5 201.5t276.5 73.5q156 0 280.5 -75.5t192.5 -203t68 -280.5q0 -156 -68 -283t-192.5 -201.5t-280.5 -74.5q-152 0 -276 74.5t-193 202.5t-69 282zM416 889q0 -195 129 -332t319 -137q193 0 322 136t129 333q0 128 -58.5 236t-162.5 171.5 t-230 63.5q-191 0 -319.5 -137.5t-128.5 -333.5zM641 578v620h225q114 0 173 -45t59 -149q0 -77 -23 -121t-80 -70l113 -235h-127l-100 219h-123v-219h-117zM758 893h121q54 0 79 24.5t25 79.5t-31 80t-96 25h-98v-209z" />
<glyph unicode="&#xaf;" horiz-adv-x="899" d="M469 1309l29 121h563l-31 -121h-561z" />
<glyph unicode="&#xb0;" d="M547 1149q0 129 80.5 209t210.5 80q129 0 208.5 -80t79.5 -209q0 -130 -79.5 -209.5t-208.5 -79.5q-131 0 -211 79.5t-80 209.5zM649 1149q0 -86 51.5 -138.5t137.5 -52.5q85 0 137.5 52.5t52.5 138.5q0 85 -52.5 137.5t-137.5 52.5q-86 0 -137.5 -52.5t-51.5 -137.5z " />
<glyph unicode="&#xb1;" d="M211 78v139h919v-139h-919zM211 600v139h385v258h143v-258h391v-139h-391v-260h-143v260h-385z" />
<glyph unicode="&#xb2;" horiz-adv-x="573" d="M289 979l28 115l226 176q65 51 99.5 89t45.5 81q10 38 -12.5 55.5t-69.5 17.5q-26 0 -70.5 -5t-75.5 -10l-32 -5l25 121q129 24 217 24q106 0 144 -45.5t13 -140.5q-18 -67 -61.5 -119.5t-122.5 -111.5l-156 -123h261l-29 -119h-430z" />
<glyph unicode="&#xb3;" horiz-adv-x="573" d="M283 979l36 115q115 -15 203 -15q101 0 121 84q23 86 -72 86h-135l27 111h133q29 0 60.5 26.5t41.5 63.5q8 36 -9.5 52t-67.5 16q-38 0 -86 -4t-77 -8l-28 -3l21 115q127 20 215 20q110 0 153 -41.5t21 -130.5q-24 -94 -118 -151q-2 -1 -3 -2q31 -11 46 -25.5t22 -47 t-9 -83.5q-26 -99 -95.5 -149t-174.5 -50q-44 0 -100.5 5t-90.5 11z" />
<glyph unicode="&#xb4;" horiz-adv-x="1118" d="M557 1339l467 193l14 -135l-467 -176z" />
<glyph unicode="&#xb5;" d="M88 -455l236 1024l106 455h152l-107 -455h2l-37 -159q-16 -78 -16 -142q0 -73 35 -113t104 -40q38 0 85 23.5t86 57.5t72.5 67.5t53.5 56.5l19 24l157 680h152l-236 -1024h-149l37 178q-6 -8 -17.5 -21.5t-48 -47.5t-73.5 -60t-89.5 -47.5t-101.5 -21.5q-96 0 -158 49 l-112 -484h-152z" />
<glyph unicode="&#xb6;" horiz-adv-x="1140" d="M297 969q0 82 34.5 165t93.5 149.5t146 108.5t185 42h635l-29 -131h-141l-310 -1303h-129l310 1303h-224l-311 -1303h-131l166 680q-78 1 -136.5 24.5t-92 64.5t-50 91t-16.5 109z" />
<glyph unicode="&#xb7;" horiz-adv-x="348" d="M211 502l53 239h158l-53 -239h-158z" />
<glyph unicode="&#xb8;" horiz-adv-x="1619" d="M639 -418l27 105q76 -6 127 -6q85 0 104 73q10 39 -10 53.5t-60 14.5h-79l43 188h81l-26 -102h10q94 0 141 -37t27 -125q-39 -178 -221 -178q-38 0 -79 3.5t-63 6.5z" />
<glyph unicode="&#xb9;" horiz-adv-x="573" d="M414 1475l243 143h123l-157 -639h-131l122 496l-163 -97z" />
<glyph unicode="&#xba;" horiz-adv-x="698" d="M299 934q0 47 16 113q39 162 120.5 232.5t221.5 70.5q91 0 150 -38t65 -116q9 -67 -12 -158q-37 -164 -120 -237.5t-228 -73.5q-105 0 -160.5 54t-52.5 153zM436 948q0 -51 25 -74.5t80 -23.5q73 0 115 43.5t69 150.5q12 52 12 93q0 50 -24.5 71t-79.5 21 q-73 0 -114.5 -40t-65.5 -140q-17 -66 -17 -101z" />
<glyph unicode="&#xbb;" horiz-adv-x="983" d="M129 164l45 158l268 178l-180 196l41 142l291 -306l-29 -77zM586 164l45 158l268 178l-180 196l41 142l291 -306l-29 -77z" />
<glyph unicode="&#xbc;" horiz-adv-x="1216" d="M221 31l875 1417l143 -53l-874 -1415zM365 1475l243 143h123l-158 -639h-131l123 496l-164 -97zM725 98l27 113l249 428h148l-254 -420h149l58 180h119l-47 -180h55l-29 -121h-55l-25 -98h-129l23 98h-289z" />
<glyph unicode="&#xbd;" horiz-adv-x="1263" d="M221 31l875 1417l143 -53l-874 -1415zM365 1475l243 143h123l-158 -639h-131l123 496l-164 -97zM778 0l29 115l225 176q66 51 100.5 89.5t45.5 80.5q10 38 -12.5 56t-69.5 18q-26 0 -70.5 -5.5t-75.5 -10.5l-32 -5l24 121q129 24 217 24q106 0 144.5 -45.5t13.5 -140.5 q-18 -67 -61.5 -119.5t-122.5 -111.5l-156 -123h260l-29 -119h-430z" />
<glyph unicode="&#xbe;" horiz-adv-x="1247" d="M254 31l874 1417l144 -53l-875 -1415zM274 979l37 115q115 -15 203 -15q101 0 121 84q23 86 -72 86h-135l27 111h133q29 0 60.5 26.5t41.5 63.5q8 36 -10 52t-68 16q-38 0 -85.5 -4t-76.5 -8l-28 -3l20 115q127 20 215 20q110 0 153 -41.5t21 -130.5q-24 -94 -117 -151 l-1.5 -1.5t-1.5 -0.5q31 -11 46 -25.5t22 -47t-9 -83.5q-26 -99 -95.5 -149t-174.5 -50q-44 0 -100.5 5t-91.5 11zM760 98l26 113l250 428h148l-254 -420h149l58 180h118l-47 -180h56l-29 -121h-55l-25 -98h-129l23 98h-289z" />
<glyph unicode="&#xbf;" horiz-adv-x="833" d="M47 -143q0 62 11.5 110t32 88.5t65 87t93 87.5t134.5 108q141 110 160 207l16 80h146q-3 -68 -15 -127q-22 -126 -207 -267q-86 -68 -130 -106.5t-80.5 -82.5t-49 -83.5t-12.5 -91.5q0 -76 53 -107.5t154 -31.5q55 0 128.5 9t119.5 18l47 9l-13 -124q-180 -52 -315 -52 q-157 0 -247.5 64.5t-90.5 204.5zM582 786l53 238h156l-52 -238h-157z" />
<glyph unicode="&#xc0;" horiz-adv-x="1134" d="M49 0l707 1417h305l29 -1417h-156l-12 362h-531l-182 -362h-160zM457 500h467l-15 778h-61zM668 1774l75 131l379 -193l-69 -115z" />
<glyph unicode="&#xc1;" horiz-adv-x="1134" d="M49 0l707 1417h305l29 -1417h-156l-12 362h-531l-182 -362h-160zM457 500h467l-15 778h-61zM776 1724l467 193l19 -133l-467 -176z" />
<glyph unicode="&#xc2;" horiz-adv-x="1134" d="M49 0l707 1417h305l29 -1417h-156l-12 362h-531l-182 -362h-160zM457 500h467l-15 778h-61zM621 1624l335 283h84l197 -283h-141l-111 166l-197 -166h-167z" />
<glyph unicode="&#xc3;" horiz-adv-x="1134" d="M49 0l707 1417h305l29 -1417h-156l-12 362h-531l-182 -362h-160zM457 500h467l-15 778h-61zM614 1772q15 14 40 34t82.5 54t92.5 34q43 0 102 -28t110.5 -56t74.5 -28q18 0 60 23.5t75 46.5l33 24l6 -109q-14 -13 -37.5 -33t-78.5 -53.5t-89 -33.5q-38 0 -96 28.5 t-111.5 57t-80.5 28.5q-20 0 -64.5 -25t-79.5 -50l-35 -25z" />
<glyph unicode="&#xc4;" horiz-adv-x="1134" d="M49 0l707 1417h305l29 -1417h-156l-12 362h-531l-182 -362h-160zM457 500h467l-15 778h-61zM698 1667l43 191h127l-47 -191h-123zM1081 1667l45 191h127l-47 -191h-125z" />
<glyph unicode="&#xc5;" horiz-adv-x="1134" d="M49 0l684 1370q-41 53 -16 146q27 101 96.5 152.5t167.5 51.5q96 0 142.5 -51t21.5 -153q-26 -94 -84 -144l29 -1372h-156l-12 362h-531l-182 -362h-160zM457 500h467l-15 778h-61zM819 1516q-9 -41 10.5 -68.5t65.5 -30.5h20q49 1 81.5 27.5t43.5 71.5q10 48 -14 73 t-72 25q-53 0 -88 -25.5t-47 -72.5z" />
<glyph unicode="&#xc6;" horiz-adv-x="1597" d="M51 0l707 1425h1085l-31 -147l-649 4l-116 -491h532l-31 -142h-534l-119 -502h645l-31 -147h-796l84 362h-412l-184 -362h-150zM453 506h378l185 772h-180z" />
<glyph unicode="&#xc7;" horiz-adv-x="1032" d="M229 385q0 95 13 195t41 203.5t68.5 198.5t99.5 178.5t130.5 145t164.5 97t198 35.5q72 0 157 -12t134 -24l49 -11l-35 -123q-157 30 -313 30q-103 0 -192.5 -56t-152.5 -148t-108.5 -210t-67.5 -243.5t-22 -247.5q0 -138 61 -206t191 -68q73 0 156.5 8.5t130.5 17.5 l47 9l-10 -129q-182 -45 -344 -45h-11l-18 -72h10q94 0 141 -37t27 -125q-39 -178 -221 -178q-38 0 -79 3.5t-63 6.5l-22 4l27 105q76 -6 127 -6q85 0 104 73q10 39 -9.5 53.5t-59.5 14.5h-80l37 164q-306 43 -306 399z" />
<glyph unicode="&#xc8;" horiz-adv-x="1034" d="M160 0l325 1417h791l-33 -139h-633l-112 -487h520l-33 -140h-518l-119 -512h633l-31 -139h-790zM680 1774l76 131l379 -193l-70 -115z" />
<glyph unicode="&#xc9;" horiz-adv-x="1034" d="M160 0l325 1417h791l-33 -139h-633l-112 -487h520l-33 -140h-518l-119 -512h633l-31 -139h-790zM754 1724l467 193l18 -133l-467 -176z" />
<glyph unicode="&#xca;" horiz-adv-x="1034" d="M160 0l325 1417h791l-33 -139h-633l-112 -487h520l-33 -140h-518l-119 -512h633l-31 -139h-790zM700 1620l336 283h84l197 -283h-141l-111 166l-197 -166h-168z" />
<glyph unicode="&#xcb;" horiz-adv-x="1034" d="M160 0l325 1417h791l-33 -139h-633l-112 -487h520l-33 -140h-518l-119 -512h633l-31 -139h-790zM680 1667l43 191h127l-47 -191h-123zM1063 1667l45 191h127l-47 -191h-125z" />
<glyph unicode="&#xcc;" horiz-adv-x="475" d="M160 0l327 1417h156l-328 -1417h-155zM305 1774l76 131l379 -193l-70 -115z" />
<glyph unicode="&#xcd;" horiz-adv-x="475" d="M160 0l327 1417h156l-328 -1417h-155zM471 1724l467 193l18 -133l-467 -176z" />
<glyph unicode="&#xce;" horiz-adv-x="475" d="M160 0l327 1417h156l-328 -1417h-155zM293 1620l336 283h84l196 -283h-141l-111 166l-196 -166h-168z" />
<glyph unicode="&#xcf;" horiz-adv-x="475" d="M160 0l327 1417h156l-328 -1417h-155zM354 1677l43 191h127l-47 -191h-123zM737 1677l45 191h127l-47 -191h-125z" />
<glyph unicode="&#xd0;" horiz-adv-x="1251" d="M168 0l145 633h-135l31 158h141l146 626h454q194 0 293.5 -100.5t99.5 -321.5q0 -110 -18.5 -224t-54 -226t-93.5 -210t-131.5 -173t-174 -118.5t-214.5 -43.5h-489zM358 139h322q97 0 181 57t141.5 148.5t98.5 206t60 228t19 216.5q0 150 -61.5 216.5t-198.5 66.5h-302 l-112 -487h291l-35 -158h-291z" />
<glyph unicode="&#xd1;" horiz-adv-x="1292" d="M160 0l327 1417h279l213 -1255h39l289 1255h153l-327 -1417h-269l-221 1264h-41l-293 -1264h-149zM694 1767q15 14 40 34.5t82.5 54.5t92.5 34q43 0 102 -28t110.5 -56t74.5 -28q18 0 60 23.5t75 46.5l33 24l6 -109q-5 -5 -14.5 -13t-35.5 -29t-50.5 -37t-54 -29 t-50.5 -13q-38 0 -96 29t-111.5 57.5t-80.5 28.5q-20 0 -64.5 -25t-79.5 -50l-35 -25z" />
<glyph unicode="&#xd2;" horiz-adv-x="1286" d="M233 403q0 262 85 503.5t241 383.5q161 148 377 148q218 0 329 -103.5t111 -320.5q0 -179 -36 -348t-114 -319.5t-190 -242.5q-152 -124 -368 -124q-226 0 -330.5 98.5t-104.5 324.5zM395 414q0 -161 65.5 -228t225.5 -67q136 0 238 82q94 77 161 217t97 289.5t30 296.5 q0 154 -68 224t-220 70q-131 0 -224 -75q-96 -79 -168 -224.5t-104.5 -296.5t-32.5 -288zM770 1774l76 131l379 -193l-70 -115z" />
<glyph unicode="&#xd3;" horiz-adv-x="1286" d="M233 403q0 262 85 503.5t241 383.5q161 148 377 148q218 0 329 -103.5t111 -320.5q0 -179 -36 -348t-114 -319.5t-190 -242.5q-152 -124 -368 -124q-226 0 -330.5 98.5t-104.5 324.5zM395 414q0 -161 65.5 -228t225.5 -67q136 0 238 82q94 77 161 217t97 289.5t30 296.5 q0 154 -68 224t-220 70q-131 0 -224 -75q-96 -79 -168 -224.5t-104.5 -296.5t-32.5 -288zM852 1724l467 193l18 -133l-467 -176z" />
<glyph unicode="&#xd4;" horiz-adv-x="1286" d="M233 403q0 262 85 503.5t241 383.5q161 148 377 148q218 0 329 -103.5t111 -320.5q0 -179 -36 -348t-114 -319.5t-190 -242.5q-152 -124 -368 -124q-226 0 -330.5 98.5t-104.5 324.5zM395 414q0 -161 65.5 -228t225.5 -67q136 0 238 82q94 77 161 217t97 289.5t30 296.5 q0 154 -68 224t-220 70q-131 0 -224 -75q-96 -79 -168 -224.5t-104.5 -296.5t-32.5 -288zM711 1624l336 283h83l197 -283h-141l-111 166l-196 -166h-168z" />
<glyph unicode="&#xd5;" horiz-adv-x="1286" d="M233 403q0 262 85 503.5t241 383.5q161 148 377 148q218 0 329 -103.5t111 -320.5q0 -179 -36 -348t-114 -319.5t-190 -242.5q-152 -124 -368 -124q-226 0 -330.5 98.5t-104.5 324.5zM395 414q0 -161 65.5 -228t225.5 -67q136 0 238 82q94 77 161 217t97 289.5t30 296.5 q0 154 -68 224t-220 70q-131 0 -224 -75q-96 -79 -168 -224.5t-104.5 -296.5t-32.5 -288zM719 1767q15 14 40 34.5t82.5 54.5t92.5 34q43 0 102 -28t110.5 -56t74.5 -28q18 0 60 23.5t75 46.5l33 24l6 -109q-5 -5 -14.5 -13t-35.5 -29t-50.5 -37t-54 -29t-50.5 -13 q-38 0 -96.5 29t-112 57.5t-80.5 28.5q-20 0 -64.5 -25t-78.5 -50l-35 -25z" />
<glyph unicode="&#xd6;" horiz-adv-x="1286" d="M233 403q0 262 85 503.5t241 383.5q161 148 377 148q218 0 329 -103.5t111 -320.5q0 -179 -36 -348t-114 -319.5t-190 -242.5q-152 -124 -368 -124q-226 0 -330.5 98.5t-104.5 324.5zM395 414q0 -161 65.5 -228t225.5 -67q136 0 238 82q94 77 161 217t97 289.5t30 296.5 q0 154 -68 224t-220 70q-131 0 -224 -75q-96 -79 -168 -224.5t-104.5 -296.5t-32.5 -288zM760 1663l43 190h141l-45 -190h-139zM1147 1663l43 190h139l-43 -190h-139z" />
<glyph unicode="&#xd7;" d="M262 184l334 330l-332 328l98 98l328 -332l330 334l98 -98l-332 -330l332 -330l-98 -98l-330 332l-328 -332z" />
<glyph unicode="&#xd8;" horiz-adv-x="1286" d="M141 -182l185 272q-93 100 -93 313q0 262 85 503.5t241 383.5q161 148 377 148q162 0 266 -58l172 252l96 -43l-186 -274q92 -109 92 -301q0 -179 -36 -348t-114 -319.5t-190 -242.5q-152 -124 -368 -124q-162 0 -260 49l-181 -262zM395 414q0 -114 29 -176l332 487 l358 526q-64 47 -190 47q-131 0 -224 -75q-96 -79 -168 -224.5t-104.5 -296.5t-32.5 -288zM496 158q65 -39 190 -39q136 0 238 82q94 77 161 217t97 289.5t30 296.5q0 103 -28 163l-334 -493z" />
<glyph unicode="&#xd9;" horiz-adv-x="1216" d="M231 274q0 97 23 187l221 956h158l-225 -973q-21 -86 -21 -149q0 -93 67.5 -134.5t194.5 -41.5q161 0 242.5 75.5t118.5 237.5l227 985h158l-228 -985q-54 -233 -178 -342.5t-352 -109.5q-191 0 -298.5 73t-107.5 221zM729 1774l76 131l379 -193l-70 -115z" />
<glyph unicode="&#xda;" horiz-adv-x="1216" d="M231 274q0 97 23 187l221 956h158l-225 -973q-21 -86 -21 -149q0 -93 67.5 -134.5t194.5 -41.5q161 0 242.5 75.5t118.5 237.5l227 985h158l-228 -985q-54 -233 -178 -342.5t-352 -109.5q-191 0 -298.5 73t-107.5 221zM772 1724l467 193l18 -133l-466 -176z" />
<glyph unicode="&#xdb;" horiz-adv-x="1216" d="M231 274q0 97 23 187l221 956h158l-225 -973q-21 -86 -21 -149q0 -93 67.5 -134.5t194.5 -41.5q161 0 242.5 75.5t118.5 237.5l227 985h158l-228 -985q-54 -233 -178 -342.5t-352 -109.5q-191 0 -298.5 73t-107.5 221zM659 1624l336 283h84l197 -283h-141l-111 166 l-197 -166h-168z" />
<glyph unicode="&#xdc;" horiz-adv-x="1216" d="M231 274q0 97 23 187l221 956h158l-225 -973q-21 -86 -21 -149q0 -93 67.5 -134.5t194.5 -41.5q161 0 242.5 75.5t118.5 237.5l227 985h158l-228 -985q-54 -233 -178 -342.5t-352 -109.5q-191 0 -298.5 73t-107.5 221zM707 1663l43 190h141l-45 -190h-139zM1094 1663 l41 190h141l-45 -190h-137z" />
<glyph unicode="&#xdd;" horiz-adv-x="1009" d="M348 1417h160l166 -661l469 661h170l-600 -811l-142 -606h-149l143 618zM688 1724l467 193l19 -133l-467 -176z" />
<glyph unicode="&#xde;" horiz-adv-x="1124" d="M156 0l336 1425h151l-55 -227h317q86 0 151.5 -24t104 -66.5t60 -100.5t20 -127t-15.5 -145q-49 -224 -187.5 -357t-347.5 -132h-325l-58 -246h-151zM399 397h326q260 0 346 338q13 51 15.5 95t-7.5 84.5t-34 69t-68.5 45.5t-106.5 18l-317 2z" />
<glyph unicode="&#xdf;" horiz-adv-x="1103" d="M133 0l256 1083q53 226 157 317t296 91q168 0 252 -63.5t84 -182.5q0 -116 -49 -189.5t-148 -121.5q-98 -46 -134 -73.5t-36 -65.5t23.5 -64t103.5 -76q47 -29 71 -45.5t50 -40t37 -46t18.5 -53.5t7.5 -73q0 -193 -118 -305t-330 -112q-52 0 -116.5 9.5t-103.5 18.5 l-38 10l28 121q136 -26 222 -26q143 0 222 73.5t79 194.5q0 58 -29 91.5t-127 92.5q-88 54 -121 97.5t-33 105.5q0 88 45 139.5t162 110.5q87 45 122.5 90.5t35.5 118.5q0 66 -45.5 98.5t-147.5 32.5q-130 0 -197 -66.5t-104 -226.5l-249 -1065h-146z" />
<glyph unicode="&#xe0;" horiz-adv-x="1024" d="M182 285q0 98 20 201.5t62.5 203.5t102 178.5t145.5 127t186 48.5q57 0 162 -13t182 -25l76 -13l-155 -665q-14 -57 -28.5 -138t-22.5 -134l-7 -52l-149 -6q29 176 37 219q-7 -10 -19.5 -26t-51.5 -56.5t-78.5 -72t-94.5 -57t-105 -25.5q-133 0 -197.5 79.5t-64.5 225.5z M340 285q0 -86 34.5 -129t117.5 -43q36 0 83.5 27.5t89.5 67t78.5 79t58.5 67.5l21 27l117 502q-144 28 -240 28q-85 0 -156 -61.5t-114 -157t-66.5 -202t-23.5 -205.5zM618 1397l74 121l379 -191l-67 -106z" />
<glyph unicode="&#xe1;" horiz-adv-x="1024" d="M182 285q0 98 20 201.5t62.5 203.5t102 178.5t145.5 127t186 48.5q57 0 162 -13t182 -25l76 -13l-155 -665q-14 -57 -28.5 -138t-22.5 -134l-7 -52l-149 -6q29 176 37 219q-7 -10 -19.5 -26t-51.5 -56.5t-78.5 -72t-94.5 -57t-105 -25.5q-133 0 -197.5 79.5t-64.5 225.5z M340 285q0 -86 34.5 -129t117.5 -43q36 0 83.5 27.5t89.5 67t78.5 79t58.5 67.5l21 27l117 502q-144 28 -240 28q-85 0 -156 -61.5t-114 -157t-66.5 -202t-23.5 -205.5zM682 1339l467 193l14 -135l-467 -176z" />
<glyph unicode="&#xe2;" horiz-adv-x="1024" d="M182 285q0 98 20 201.5t62.5 203.5t102 178.5t145.5 127t186 48.5q57 0 162 -13t182 -25l76 -13l-155 -665q-14 -57 -28.5 -138t-22.5 -134l-7 -52l-149 -6q29 176 37 219q-7 -10 -19.5 -26t-51.5 -56.5t-78.5 -72t-94.5 -57t-105 -25.5q-133 0 -197.5 79.5t-64.5 225.5z M340 285q0 -86 34.5 -129t117.5 -43q36 0 83.5 27.5t89.5 67t78.5 79t58.5 67.5l21 27l117 502q-144 28 -240 28q-85 0 -156 -61.5t-114 -157t-66.5 -202t-23.5 -205.5zM494 1202l317 309h109l176 -309h-154l-98 176l-182 -176h-168z" />
<glyph unicode="&#xe3;" horiz-adv-x="1024" d="M182 285q0 98 20 201.5t62.5 203.5t102 178.5t145.5 127t186 48.5q57 0 162 -13t182 -25l76 -13l-155 -665q-14 -57 -28.5 -138t-22.5 -134l-7 -52l-149 -6q29 176 37 219q-7 -10 -19.5 -26t-51.5 -56.5t-78.5 -72t-94.5 -57t-105 -25.5q-133 0 -197.5 79.5t-64.5 225.5z M340 285q0 -86 34.5 -129t117.5 -43q36 0 83.5 27.5t89.5 67t78.5 79t58.5 67.5l21 27l117 502q-144 28 -240 28q-85 0 -156 -61.5t-114 -157t-66.5 -202t-23.5 -205.5zM563 1382q14 12 37.5 30t77.5 48.5t88 30.5q38 0 91 -24.5t99.5 -49t67.5 -24.5q18 0 56.5 21t67.5 42 l30 21l10 -115q-13 -12 -34.5 -29.5t-73 -46.5t-85.5 -29q-44 0 -139.5 49.5t-122.5 49.5q-21 0 -62 -22t-71 -44l-31 -22z" />
<glyph unicode="&#xe4;" horiz-adv-x="1024" d="M182 285q0 98 20 201.5t62.5 203.5t102 178.5t145.5 127t186 48.5q57 0 162 -13t182 -25l76 -13l-155 -665q-14 -57 -28.5 -138t-22.5 -134l-7 -52l-149 -6q29 176 37 219q-7 -10 -19.5 -26t-51.5 -56.5t-78.5 -72t-94.5 -57t-105 -25.5q-133 0 -197.5 79.5t-64.5 225.5z M340 285q0 -86 34.5 -129t117.5 -43q36 0 83.5 27.5t89.5 67t78.5 79t58.5 67.5l21 27l117 502q-144 28 -240 28q-85 0 -156 -61.5t-114 -157t-66.5 -202t-23.5 -205.5zM545 1270l43 190h141l-45 -190h-139zM934 1270l41 190h141l-45 -190h-137z" />
<glyph unicode="&#xe5;" horiz-adv-x="1024" d="M182 285q0 98 20 201.5t62.5 203.5t102 178.5t145.5 127t186 48.5q57 0 162 -13t182 -25l76 -13l-155 -665q-14 -57 -28.5 -138t-22.5 -134l-7 -52l-149 -6q29 176 37 219q-7 -10 -19.5 -26t-51.5 -56.5t-78.5 -72t-94.5 -57t-105 -25.5q-133 0 -197.5 79.5t-64.5 225.5z M340 285q0 -86 34.5 -129t117.5 -43q36 0 83.5 27.5t89.5 67t78.5 79t58.5 67.5l21 27l117 502q-144 28 -240 28q-85 0 -156 -61.5t-114 -157t-66.5 -202t-23.5 -205.5zM690 1358q18 83 83 140.5t155 57.5q76 0 112 -47t27 -127q-9 -100 -77.5 -163.5t-162.5 -63.5 q-89 0 -123 56t-14 147zM782 1358q-9 -38 11.5 -70.5t60.5 -32.5q41 0 74.5 29.5t44.5 71.5q9 38 -11 67t-59 29q-42 0 -76 -27t-45 -67z" />
<glyph unicode="&#xe6;" horiz-adv-x="1533" d="M129 178.5q-7 56.5 8 116.5q14 73 46 127t80.5 88.5t103.5 54t127 31.5q146 22 309 29q9 27 15.5 51.5t12 58t1.5 60t-15 50t-38 37t-68 13.5q-64 0 -156 -5.5t-153 -11.5l-60 -6l25 142q233 30 383 30q89 0 148.5 -39t74.5 -112q125 151 340 151q289 0 295 -276 q0 -104 -29 -211l-31 -113l-624 5q-24 -100 -21 -162q3 -81 45.5 -122.5t138.5 -41.5q62 0 150.5 4.5t146.5 8.5l58 5l-27 -129q-206 -32 -368 -32q-196 0 -265 110q-90 -39 -223.5 -74.5t-218.5 -35.5q-65 0 -112.5 26.5t-69.5 71t-29 101zM284 238q2 -32 10.5 -59 t33 -44.5t61.5 -17.5q129 0 361 78q-7 36 -8 73.5t5.5 79.5t12.5 72.5t18 79.5q-126 -10 -282 -29q-167 -26 -205 -172q-9 -29 -7 -61zM950 573l486 -4q25 98 22 176q-3 83 -47.5 121.5t-132.5 38.5q-127 0 -207 -80t-121 -252z" />
<glyph unicode="&#xe7;" horiz-adv-x="831" d="M188 291q0 151 33.5 284t98 239t169.5 168t238 62q52 0 116 -9.5t102 -18.5l38 -10l-39 -119q-133 24 -221 24q-94 0 -168 -51.5t-118.5 -137.5t-67.5 -189t-23 -214q0 -103 49.5 -154.5t161.5 -51.5q36 0 93 7.5t96 15.5l40 7l-10 -120q-141 -43 -268 -43l-19 -72h11 q94 0 141 -37t27 -125q-39 -178 -222 -178q-38 0 -79 3.5t-63 6.5l-21 4l26 105q76 -6 127 -6q86 0 105 73q10 39 -10 53.5t-60 14.5h-80l37 164q-118 19 -179 97t-61 208z" />
<glyph unicode="&#xe8;" horiz-adv-x="946" d="M186 291q0 108 20 213.5t64 203.5t107 172.5t156 119t204 44.5q144 0 223.5 -60.5t79.5 -188.5q0 -183 -137 -255.5t-436 -72.5h-105q-22 -80 -22 -166q0 -90 53.5 -138t143.5 -48q68 0 152 11.5t135 22.5l50 11l-12 -121q-20 -7 -55.5 -16.5t-132 -26t-178.5 -16.5 q-150 0 -230 78t-80 233zM383 588h113q209 0 301 44.5t92 160.5q0 65 -40 93.5t-118 28.5q-253 0 -348 -327zM455 1397l73 121l379 -191l-67 -106z" />
<glyph unicode="&#xe9;" horiz-adv-x="946" d="M186 291q0 108 20 213.5t64 203.5t107 172.5t156 119t204 44.5q144 0 223.5 -60.5t79.5 -188.5q0 -183 -137 -255.5t-436 -72.5h-105q-22 -80 -22 -166q0 -90 53.5 -138t143.5 -48q68 0 152 11.5t135 22.5l50 11l-12 -121q-20 -7 -55.5 -16.5t-132 -26t-178.5 -16.5 q-150 0 -230 78t-80 233zM383 588h113q209 0 301 44.5t92 160.5q0 65 -40 93.5t-118 28.5q-253 0 -348 -327zM600 1339l467 193l14 -135l-467 -176z" />
<glyph unicode="&#xea;" horiz-adv-x="946" d="M186 291q0 108 20 213.5t64 203.5t107 172.5t156 119t204 44.5q144 0 223.5 -60.5t79.5 -188.5q0 -183 -137 -255.5t-436 -72.5h-105q-22 -80 -22 -166q0 -90 53.5 -138t143.5 -48q68 0 152 11.5t135 22.5l50 11l-12 -121q-20 -7 -55.5 -16.5t-132 -26t-178.5 -16.5 q-150 0 -230 78t-80 233zM383 588h113q209 0 301 44.5t92 160.5q0 65 -40 93.5t-118 28.5q-253 0 -348 -327zM451 1202l317 309h109l176 -309h-154l-98 176l-183 -176h-167z" />
<glyph unicode="&#xeb;" horiz-adv-x="946" d="M186 291q0 108 20 213.5t64 203.5t107 172.5t156 119t204 44.5q144 0 223.5 -60.5t79.5 -188.5q0 -183 -137 -255.5t-436 -72.5h-105q-22 -80 -22 -166q0 -90 53.5 -138t143.5 -48q68 0 152 11.5t135 22.5l50 11l-12 -121q-20 -7 -55.5 -16.5t-132 -26t-178.5 -16.5 q-150 0 -230 78t-80 233zM383 588h113q209 0 301 44.5t92 160.5q0 65 -40 93.5t-118 28.5q-253 0 -348 -327zM518 1270l43 190h141l-45 -190h-139zM907 1270l41 190h142l-46 -190h-137z" />
<glyph unicode="&#xec;" horiz-adv-x="421" d="M135 0l236 1024h153l-237 -1024h-152zM156 1397l73 121l379 -191l-67 -106z" />
<glyph unicode="&#xed;" horiz-adv-x="421" d="M135 0l236 1024h153l-237 -1024h-152zM383 1339l467 193l14 -135l-467 -176z" />
<glyph unicode="&#xee;" horiz-adv-x="421" d="M135 0l236 1024h153l-237 -1024h-152zM172 1202l317 309h109l178 -309h-155l-99 176l-182 -176h-168z" />
<glyph unicode="&#xef;" horiz-adv-x="421" d="M135 0l236 1024h153l-237 -1024h-152zM211 1270l45 190h141l-45 -190h-141zM600 1270l41 190h141l-45 -190h-137z" />
<glyph unicode="&#xf0;" horiz-adv-x="1058" d="M168 346q20 240 169 388.5t355 148.5q64 0 139.5 -18t118.5 -36l43 -18q44 260 -188 406l-234 -152l-57 94l178 115q-91 37 -188 65l59 138q180 -40 293 -99l215 140l55 -95l-168 -108q264 -202 175 -584q-95 -394 -244 -571.5t-381 -177.5q-97 0 -169.5 30t-111.5 81.5 t-54 116t-5 136.5zM330 352q-11 -102 40 -160.5t173 -58.5q285 0 420 531q-16 8 -50 21.5t-108.5 32.5t-134.5 19q-138 0 -234.5 -110t-105.5 -275z" />
<glyph unicode="&#xf1;" horiz-adv-x="1019" d="M135 0h152l157 680q7 9 20 24.5t51.5 55t75 69.5t84 55t85.5 25q139 0 139 -153q0 -85 -39 -246l-119 -510h152l121 520q41 169 41 266q0 119 -61 188.5t-181 69.5q-49 0 -101 -20.5t-91 -49.5t-71.5 -58t-49.5 -50l-17 -20l37 178h-149zM518 1382q14 12 37.5 30 t77.5 48.5t88 30.5q38 0 91 -24.5t99.5 -49t67.5 -24.5q18 0 56.5 21t68.5 42l29 21l10 -115q-13 -12 -34.5 -29.5t-73 -46.5t-85.5 -29q-44 0 -139.5 49.5t-122.5 49.5q-21 0 -62 -22t-72 -44l-30 -22z" />
<glyph unicode="&#xf2;" horiz-adv-x="1011" d="M186 315q0 191 64 357t183.5 269t268.5 103q174 0 264.5 -86.5t90.5 -261.5q0 -113 -22.5 -218.5t-67 -195.5t-106.5 -157.5t-145.5 -106t-178.5 -38.5q-174 0 -262.5 81t-88.5 254zM340 313q0 -97 49.5 -148.5t147.5 -51.5q109 0 194 82.5t128.5 215t43.5 287.5 q0 99 -50.5 156t-150.5 57q-106 0 -190 -86t-128 -221.5t-44 -290.5zM512 1397l74 121l379 -191l-68 -106z" />
<glyph unicode="&#xf3;" horiz-adv-x="1011" d="M186 315q0 191 64 357t183.5 269t268.5 103q174 0 264.5 -86.5t90.5 -261.5q0 -113 -22.5 -218.5t-67 -195.5t-106.5 -157.5t-145.5 -106t-178.5 -38.5q-174 0 -262.5 81t-88.5 254zM340 313q0 -97 49.5 -148.5t147.5 -51.5q109 0 194 82.5t128.5 215t43.5 287.5 q0 99 -50.5 156t-150.5 57q-106 0 -190 -86t-128 -221.5t-44 -290.5zM604 1339l467 193l14 -135l-467 -176z" />
<glyph unicode="&#xf4;" horiz-adv-x="1011" d="M186 315q0 191 64 357t183.5 269t268.5 103q174 0 264.5 -86.5t90.5 -261.5q0 -113 -22.5 -218.5t-67 -195.5t-106.5 -157.5t-145.5 -106t-178.5 -38.5q-174 0 -262.5 81t-88.5 254zM340 313q0 -97 49.5 -148.5t147.5 -51.5q109 0 194 82.5t128.5 215t43.5 287.5 q0 99 -50.5 156t-150.5 57q-106 0 -190 -86t-128 -221.5t-44 -290.5zM481 1202l318 309h108l178 -309h-155l-99 176l-182 -176h-168z" />
<glyph unicode="&#xf5;" horiz-adv-x="1011" d="M186 315q0 191 64 357t183.5 269t268.5 103q174 0 264.5 -86.5t90.5 -261.5q0 -113 -22.5 -218.5t-67 -195.5t-106.5 -157.5t-145.5 -106t-178.5 -38.5q-174 0 -262.5 81t-88.5 254zM340 313q0 -97 49.5 -148.5t147.5 -51.5q109 0 194 82.5t128.5 215t43.5 287.5 q0 99 -50.5 156t-150.5 57q-106 0 -190 -86t-128 -221.5t-44 -290.5zM487 1382q14 12 37.5 30t77.5 48.5t88 30.5q38 0 91 -24.5t99.5 -49t67.5 -24.5q18 0 56.5 21t67.5 42l30 21l10 -115q-13 -12 -34.5 -29.5t-72.5 -46.5t-85 -29q-44 0 -140 49.5t-123 49.5 q-21 0 -61.5 -22t-71.5 -44l-30 -22z" />
<glyph unicode="&#xf6;" horiz-adv-x="1011" d="M186 315q0 191 64 357t183.5 269t268.5 103q174 0 264.5 -86.5t90.5 -261.5q0 -113 -22.5 -218.5t-67 -195.5t-106.5 -157.5t-145.5 -106t-178.5 -38.5q-174 0 -262.5 81t-88.5 254zM340 313q0 -97 49.5 -148.5t147.5 -51.5q109 0 194 82.5t128.5 215t43.5 287.5 q0 99 -50.5 156t-150.5 57q-106 0 -190 -86t-128 -221.5t-44 -290.5zM537 1270l43 190h127l-45 -190h-125zM911 1270l41 190h127l-45 -190h-123z" />
<glyph unicode="&#xf7;" d="M365 575v150h116v98h422v-98h115v-150h-653zM614 61v207h154v-207h-154z" />
<glyph unicode="&#xf8;" horiz-adv-x="1011" d="M123 -188l158 249q-93 84 -93 258q0 191 64 357t184 269.5t269 103.5q98 0 174 -31l137 221l92 -41l-147 -231q98 -89 98 -267q0 -113 -22.5 -218.5t-67 -195.5t-106.5 -157.5t-145.5 -106t-178.5 -38.5q-103 0 -179 28l-147 -239zM342 317q0 -71 27 -118l211 331 l223 365q-39 20 -98 20q-106 0 -190.5 -86t-128.5 -221.5t-44 -290.5zM438 135q40 -18 101 -18q109 0 194 82.5t128.5 215t43.5 287.5q0 75 -31 129l-217 -342z" />
<glyph unicode="&#xf9;" horiz-adv-x="1019" d="M201 238q0 97 41 266l120 520h152l-119 -510q-39 -161 -39 -246q0 -73 35.5 -113t104.5 -40q38 0 84.5 23.5t86 57.5t73 67.5t52.5 56.5l19 24l158 680h151l-235 -1024h-150l37 178q-6 -8 -17.5 -21.5t-48 -47.5t-73.5 -60t-89.5 -47.5t-101.5 -21.5q-118 0 -179.5 69.5 t-61.5 188.5zM516 1397l74 121l379 -191l-68 -106z" />
<glyph unicode="&#xfa;" horiz-adv-x="1019" d="M201 238q0 97 41 266l120 520h152l-119 -510q-39 -161 -39 -246q0 -73 35.5 -113t104.5 -40q38 0 84.5 23.5t86 57.5t73 67.5t52.5 56.5l19 24l158 680h151l-235 -1024h-150l37 178q-6 -8 -17.5 -21.5t-48 -47.5t-73.5 -60t-89.5 -47.5t-101.5 -21.5q-118 0 -179.5 69.5 t-61.5 188.5zM627 1339l467 193l14 -135l-467 -176z" />
<glyph unicode="&#xfb;" horiz-adv-x="1019" d="M201 238q0 97 41 266l120 520h152l-119 -510q-39 -161 -39 -246q0 -73 35.5 -113t104.5 -40q38 0 84.5 23.5t86 57.5t73 67.5t52.5 56.5l19 24l158 680h151l-235 -1024h-150l37 178q-6 -8 -17.5 -21.5t-48 -47.5t-73.5 -60t-89.5 -47.5t-101.5 -21.5q-118 0 -179.5 69.5 t-61.5 188.5zM451 1202l317 309h109l176 -309h-154l-98 176l-183 -176h-167z" />
<glyph unicode="&#xfc;" horiz-adv-x="1019" d="M201 238q0 97 41 266l120 520h152l-119 -510q-39 -161 -39 -246q0 -73 35.5 -113t104.5 -40q38 0 84.5 23.5t86 57.5t73 67.5t52.5 56.5l19 24l158 680h151l-235 -1024h-150l37 178q-6 -8 -17.5 -21.5t-48 -47.5t-73.5 -60t-89.5 -47.5t-101.5 -21.5q-118 0 -179.5 69.5 t-61.5 188.5zM508 1270l45 190h141l-45 -190h-141zM897 1270l41 190h141l-45 -190h-137z" />
<glyph unicode="&#xfd;" horiz-adv-x="929" d="M215 -453l236 453h-140l-26 1024h151l17 -893h61l447 893h157l-747 -1477h-156zM578 1339l466 193l15 -135l-467 -176z" />
<glyph unicode="&#xfe;" horiz-adv-x="989" d="M27 -451l452 1917h146l-129 -544q157 122 290 122q84 0 141.5 -34t84 -87t35 -123t0.5 -137.5t-27 -134.5q-77 -291 -203 -419.5t-342 -128.5q-44 0 -92.5 3.5t-77.5 8t-29 6.5l-106 -449h-143zM309 141l193 -20q145 0 228.5 98.5t141.5 310.5q16 55 20.5 115t-4.5 119 t-46.5 97t-100.5 38q-36 0 -78.5 -13.5t-77 -32.5t-64 -38t-46 -31.5t-16.5 -11.5z" />
<glyph unicode="&#xff;" horiz-adv-x="929" d="M215 -453l236 453h-140l-26 1024h151l17 -893h61l447 893h157l-747 -1477h-156zM467 1270l43 190h141l-45 -190h-139zM856 1270l41 190h141l-45 -190h-137z" />
<glyph unicode="&#x152;" horiz-adv-x="1757" d="M219 334q-3 155 49 373q89 376 249.5 557.5t430.5 181.5q32 0 132 -7.5t137 -13.5h788l-33 -153h-643l-117 -477h527l-33 -150l-524 4l-117 -495h641l-37 -156h-784q-207 -18 -281 -18q-197 0 -288.5 88.5t-96.5 265.5zM377 395q0 -135 64 -198.5t212 -63.5q39 0 260 17 l269 1128q-105 14 -254 14q-105 0 -184.5 -35t-139.5 -110t-102 -180t-78 -258q-47 -193 -47 -314z" />
<glyph unicode="&#x153;" horiz-adv-x="1636" d="M182 225q-9 133 33 301q31 131 72 222.5t103.5 160.5t152 102t209.5 33q124 0 194.5 -47t93.5 -145q125 192 371 192q292 0 301 -268q4 -109 -26 -215l-35 -117l-631 5q-25 -114 -23 -164q5 -81 51 -121.5t142 -40.5q61 0 149.5 4.5t146.5 8.5l58 5l-24 -129 q-207 -32 -373 -32q-230 0 -275 172q-64 -89 -152 -130.5t-218 -41.5q-159 0 -236.5 60t-83.5 185zM332 270q3 -78 49.5 -113.5t150.5 -35.5q50 0 92 11t73 29t57.5 49t44.5 61t35 77t28 85t25 95q36 146 20 238q-12 71 -57 104t-131 33q-146 0 -225.5 -88.5t-126.5 -288.5 q-42 -178 -35 -256zM1049 573l489 -4q28 111 25 179q-1 80 -45.5 115.5t-135.5 35.5q-129 0 -210.5 -78t-122.5 -248z" />
<glyph unicode="&#x178;" horiz-adv-x="1009" d="M348 1417h160l166 -661l469 661h170l-600 -811l-142 -606h-149l143 618zM610 1665l43 190h127l-47 -190h-123zM993 1665l45 190h127l-47 -190h-125z" />
<glyph unicode="&#x2c6;" horiz-adv-x="1619" d="M786 1202l318 309h82l178 -309h-141l-99 176l-182 -176h-156z" />
<glyph unicode="&#x2dc;" horiz-adv-x="874" d="M449 1382q14 12 37 30t77 48.5t88 30.5q38 0 91 -24.5t99.5 -49t67.5 -24.5q18 0 56.5 21t68.5 42l29 21l10 -115q-13 -12 -34.5 -29.5t-72.5 -46.5t-85 -29q-44 0 -140 49.5t-123 49.5q-21 0 -61.5 -22t-70.5 -44l-31 -22z" />
<glyph unicode="&#x2000;" horiz-adv-x="958" />
<glyph unicode="&#x2001;" horiz-adv-x="1917" />
<glyph unicode="&#x2002;" horiz-adv-x="958" />
<glyph unicode="&#x2003;" horiz-adv-x="1917" />
<glyph unicode="&#x2004;" horiz-adv-x="639" />
<glyph unicode="&#x2005;" horiz-adv-x="479" />
<glyph unicode="&#x2006;" horiz-adv-x="319" />
<glyph unicode="&#x2007;" horiz-adv-x="319" />
<glyph unicode="&#x2008;" horiz-adv-x="239" />
<glyph unicode="&#x2009;" horiz-adv-x="383" />
<glyph unicode="&#x200a;" horiz-adv-x="106" />
<glyph unicode="&#x2010;" horiz-adv-x="690" d="M201 477l35 141h505l-34 -141h-506z" />
<glyph unicode="&#x2011;" horiz-adv-x="690" d="M201 477l35 141h505l-34 -141h-506z" />
<glyph unicode="&#x2012;" horiz-adv-x="690" d="M201 477l35 141h505l-34 -141h-506z" />
<glyph unicode="&#x2013;" horiz-adv-x="1216" d="M223 481v135h1024v-135h-1024z" />
<glyph unicode="&#x2014;" horiz-adv-x="2240" d="M223 481v135h2048v-135h-2048z" />
<glyph unicode="&#x2018;" horiz-adv-x="370" d="M289 958l227 457h115l-187 -457h-155z" />
<glyph unicode="&#x2019;" horiz-adv-x="370" d="M293 961l186 456h156l-227 -456h-115z" />
<glyph unicode="&#x201a;" horiz-adv-x="352" d="M-29 -274l187 456h155l-227 -456h-115z" />
<glyph unicode="&#x201c;" horiz-adv-x="692" d="M287 961l227 456h115l-187 -456h-155zM610 961l228 456h114l-186 -456h-156z" />
<glyph unicode="&#x201d;" horiz-adv-x="694" d="M293 961l186 456h156l-227 -456h-115zM616 961l187 456h155l-227 -456h-115z" />
<glyph unicode="&#x201e;" horiz-adv-x="665" d="M-59 -276l227 456h115l-187 -456h-155zM281 -276l227 456h115l-187 -456h-155z" />
<glyph unicode="&#x2022;" horiz-adv-x="993" d="M358 217v586h512v-586h-512z" />
<glyph unicode="&#x2026;" horiz-adv-x="1310" d="M96 0l54 227h155l-53 -227h-156zM580 0l53 227h155l-53 -227h-155zM1061 0l53 227h156l-53 -227h-156z" />
<glyph unicode="&#x202f;" horiz-adv-x="383" />
<glyph unicode="&#x2039;" horiz-adv-x="524" d="M164 469l29 78l436 291l-45 -158l-269 -178l181 -197l-41 -141z" />
<glyph unicode="&#x203a;" horiz-adv-x="526" d="M129 164l45 158l268 178l-180 196l41 142l291 -306l-29 -77z" />
<glyph unicode="&#x205f;" horiz-adv-x="479" />
<glyph unicode="&#x20ac;" d="M205 428l28 127h91q10 90 45 215h-86l30 125h97q41 102 95 186t125.5 151t164 104.5t198.5 37.5q69 0 150.5 -11t128.5 -23l47 -11l-33 -119q-152 31 -299 31q-136 0 -241.5 -94t-174.5 -252h549l-28 -125h-566q-30 -90 -47 -215h563l-28 -127h-547v-53q0 -132 58.5 -197 t183.5 -65q69 0 149 8.5t125 16.5l45 9l-10 -124q-174 -43 -330 -43q-377 0 -377 389v59h-106z" />
<glyph unicode="&#x2122;" horiz-adv-x="1431" d="M449 1188v102h409v-102h-135v-508h-113v508h-161zM922 678v612h145l137 -426l144 426h145v-612h-107v459l-137 -428h-88l-133 428v-459h-106z" />
<glyph unicode="&#x25fc;" horiz-adv-x="1024" d="M0 0v1024h1024v-1024h-1024z" />
</font>
</defs>
</svg>
