<?xml version="1.0" standalone="no"?>
<!DOCTYPE svg PUBLIC "-//W3C//DTD SVG 1.1//EN" "http://www.w3.org/Graphics/SVG/1.1/DTD/svg11.dtd" >
<svg xmlns="http://www.w3.org/2000/svg">
<metadata></metadata>
<defs>
<font id="titillium_bdbold_italic" horiz-adv-x="1146" >
<font-face units-per-em="2048" ascent="1536" descent="-512" />
<missing-glyph horiz-adv-x="450" />
<glyph horiz-adv-x="2048" />
<glyph horiz-adv-x="2048" />
<glyph unicode="&#xd;" horiz-adv-x="2048" />
<glyph unicode=" "  horiz-adv-x="450" />
<glyph unicode="&#x09;" horiz-adv-x="450" />
<glyph unicode="&#xa0;" horiz-adv-x="450" />
<glyph unicode="!" horiz-adv-x="333" d="M29 0l71 313h279l-72 -313h-278zM158 528l194 906h293l-229 -906h-258z" />
<glyph unicode="&#x22;" horiz-adv-x="626" d="M223 895l119 514h256l-139 -514h-236zM567 895l119 514h256l-139 -514h-236z" />
<glyph unicode="#" d="M104 338l58 229h196l54 217h-197l57 230h197l84 338h238l-84 -338h213l84 338h237l-84 -338h197l-58 -230h-196l-53 -217h196l-57 -229h-197l-84 -338h-237l84 338h-213l-84 -338h-238l84 338h-197zM596 567h213l53 217h-213z" />
<glyph unicode="$" d="M180 57l45 199q106 -21 217 -33l168 375q-130 62 -184.5 135.5t-54.5 200.5q0 193 124.5 318.5t333.5 125.5q45 0 127 -8l95 209h176l-107 -240q34 -8 65.5 -17t46.5 -14l15 -5l-51 -195q-80 12 -170 22l-160 -352q143 -66 191.5 -135.5t48.5 -198.5q0 -225 -139 -347 t-373 -122q-18 0 -86 5l-100 -224h-175l113 250q-44 11 -85.5 24t-60.5 20zM612 215q106 3 160.5 49t54.5 148q0 40 -14.5 63.5t-58.5 50.5zM649 967q0 -42 14.5 -66.5t59.5 -52.5l133 297h-18q-88 0 -138.5 -49.5t-50.5 -128.5z" />
<glyph unicode="%" d="M221 12l869 1463l161 -62l-868 -1462zM309 1139q-36 -148 8 -223.5t164 -75.5t202 75.5t118 223.5t-8 222.5t-164 74.5t-202 -74.5t-118 -222.5zM493.5 1036q-1.5 32 16.5 103q20 75 36 104t42 29q27 0 29 -31t-17 -102q-18 -74 -34.5 -104.5t-43.5 -30.5t-28.5 32z M678 299q36 148 117.5 222.5t201.5 74.5t164 -74.5t8 -222.5t-118 -223.5t-201 -75.5q-120 0 -164 75.5t-8 223.5zM860.5 196q1.5 -32 28.5 -32t43.5 30t36.5 105q18 71 16 102t-29 31t-43 -29.5t-34 -103.5q-20 -71 -18.5 -103z" />
<glyph unicode="&#x26;" horiz-adv-x="1312" d="M129 332q0 178 99 294t302 197q-61 106 -61 219q0 97 31.5 170.5t88.5 117.5t130 65.5t162 21.5q360 0 360 -309q0 -145 -74.5 -229.5t-285.5 -167.5l155 -209q25 36 58.5 117t42.5 131h252q-23 -93 -89.5 -224.5t-123.5 -199.5l163 -191l-190 -164l-148 189 q-192 -185 -450 -185q-123 0 -209 28.5t-131 80.5t-63.5 112t-18.5 136zM414 367q0 -158 194 -158q65 0 142.5 35.5t119.5 79.5l-241 342q-121 -56 -168 -130t-47 -169zM743 1034q0 -114 41 -176q113 59 148 104.5t35 120.5q0 49 -22.5 77t-67.5 28q-64 0 -99 -42t-35 -112z " />
<glyph unicode="'" horiz-adv-x="282" d="M223 895l119 514h256l-139 -514h-236z" />
<glyph unicode="(" horiz-adv-x="479" d="M104 270q0 132 26.5 273.5t69.5 261t94.5 234t103 202t94.5 154.5t70 102l26 35h256q-9 -14 -25.5 -39.5t-63.5 -107t-89.5 -165.5t-94.5 -206t-89.5 -237.5t-63 -251t-25.5 -255.5q0 -128 8.5 -258.5t16.5 -197.5l8 -66h-262q-7 22 -17 64t-26.5 178t-16.5 280z" />
<glyph unicode=")" horiz-adv-x="481" d="M-66 -242q9 14 25.5 39.5t63.5 107t89.5 165.5t94.5 206t89.5 237.5t63 251t25.5 255.5q0 128 -8.5 258.5t-16.5 197.5l-8 66h262q7 -22 17 -64t26.5 -178t16.5 -280q0 -132 -26.5 -273.5t-69.5 -261t-94.5 -234t-103 -202t-94.5 -154.5t-70 -102l-26 -35h-256z" />
<glyph unicode="*" horiz-adv-x="866" d="M332 938l215 160l-209 149l94 129l207 -149l80 248l153 -52l-77 -249h252v-152h-252l77 -246l-149 -45l-84 248l-211 -162z" />
<glyph unicode="+" d="M219 391v246h346v344h246v-344h350v-246h-350v-348h-246v348h-346z" />
<glyph unicode="," horiz-adv-x="358" d="M-109 -266l240 579h301l-313 -579h-228z" />
<glyph unicode="-" horiz-adv-x="546" d="M109 420l61 246h518l-61 -246h-518z" />
<glyph unicode="." horiz-adv-x="311" d="M16 0l72 313h279l-72 -313h-279z" />
<glyph unicode="/" horiz-adv-x="958" d="M76 41l882 1429l259 -90l-883 -1429z" />
<glyph unicode="0" d="M195 410q0 216 48 398t131.5 306t198.5 193t248 69q230 0 336.5 -111t106.5 -323q0 -216 -48 -398.5t-132 -306.5t-199 -193t-248 -69q-230 0 -336 111.5t-106 323.5zM483 446q0 -120 34 -174.5t124 -54.5q75 0 140 67t106 170t64.5 221t23.5 226q0 123 -34.5 178.5 t-125.5 55.5q-74 0 -138.5 -67t-105.5 -171t-64.5 -223t-23.5 -228z" />
<glyph unicode="1" d="M397 1057l523 295h243l-311 -1352h-281l236 1020l-334 -184z" />
<glyph unicode="2" d="M129 0l55 229l408 355q197 170 274.5 256.5t77.5 152.5q0 80 -42.5 111t-158.5 31q-62 0 -142.5 -7.5t-130.5 -15.5l-50 -8l37 205q22 8 59.5 19t135.5 29.5t175 18.5q210 0 308 -75.5t98 -237.5q0 -89 -22.5 -162.5t-72.5 -138.5t-106.5 -117t-146.5 -121l-373 -282h547 l-60 -242h-870z" />
<glyph unicode="3" d="M121 49l59 193q234 -25 375 -25q112 0 190 60t78 167q0 60 -38.5 86t-137.5 27l-258 4l51 209l265 12q80 3 157.5 71.5t77.5 154.5q0 127 -184 127q-71 0 -158.5 -6.5t-139.5 -13.5l-52 -7l28 184q20 9 56 23t138 37.5t193 23.5q210 0 309 -70t99 -223 q0 -139 -54.5 -220.5t-191.5 -151.5q73 -43 101 -95.5t28 -158.5q0 -216 -160 -349t-422 -133q-89 0 -191.5 18.5t-160.5 36.5z" />
<glyph unicode="4" d="M143 229l47 205l566 918h307l-571 -889h276l84 364h278l-83 -364h124l-55 -234h-123l-55 -239h-279l56 239h-572z" />
<glyph unicode="5" d="M127 63l63 213q238 -59 392 -59q118 0 197 74t79 176q0 78 -36.5 112.5t-123.5 34.5q-45 0 -98.5 -11t-83.5 -21l-31 -11l-204 47l227 736h805l-56 -242h-581l-121 -319q146 63 236 63q356 0 356 -328q0 -160 -70.5 -287t-193.5 -196.5t-275 -69.5q-108 0 -228 22 t-186 44z" />
<glyph unicode="6" d="M203 457q0 122 32 250t97 247.5t154 213.5t214.5 151t266.5 57q68 0 154 -11t138 -23l52 -11l-88 -227q-160 31 -322 31q-126 0 -210.5 -86t-143.5 -250q18 8 48.5 20t104 31.5t123.5 19.5q371 0 371 -356q0 -243 -145 -391t-410 -148q-204 0 -320 119.5t-116 362.5z M492 449q0 -43 8.5 -81.5t26.5 -73.5t51.5 -56t78.5 -21q121 0 184.5 69t63.5 201q0 78 -43.5 110t-122.5 32q-58 0 -115.5 -12.5t-85.5 -24.5l-28 -12q-18 -79 -18 -131z" />
<glyph unicode="7" d="M240 37l710 989l17 84h-564l56 242h844l-82 -355l-725 -1034z" />
<glyph unicode="8" d="M133 315q0 62 26 122t69.5 109t84 84t86.5 66q-41 41 -61 79t-22.5 58.5t-2.5 55.5v10q0 91 40 176.5t113.5 153t187 108.5t249.5 41q193 0 298.5 -78.5t105.5 -193.5q0 -79 -16 -141.5t-50 -110.5t-73 -83.5t-97 -74.5q107 -81 107 -252q0 -137 -86.5 -246t-229 -168 t-311.5 -59q-222 0 -320 85.5t-98 258.5zM438 369q0 -85 40 -120.5t136 -35.5q111 0 189 68t78 151q0 52 -18 80.5t-70 50.5h-181q-75 -27 -124.5 -78t-49.5 -116zM602 932q0 -49 13.5 -74.5t54.5 -60.5h180q62 36 108 92.5t46 105.5q0 63 -40 102.5t-122 39.5 q-97 0 -168.5 -64.5t-71.5 -140.5z" />
<glyph unicode="9" d="M162 20l86 244q118 -31 280 -31q133 0 239.5 85t141.5 225l-54 -13q-54 -13 -130 -27t-119 -14q-177 0 -263.5 86.5t-86.5 276.5q0 69 21.5 140t69.5 140.5t116 123.5t170 87t223 33q193 0 288 -136.5t95 -379.5q0 -210 -63.5 -381t-171 -279.5t-246 -166.5t-293.5 -58 q-68 0 -143.5 11t-117.5 22zM530 877q0 -81 37 -109.5t127 -28.5q49 0 117.5 7.5t112.5 15.5l43 8q31 157 -10.5 253.5t-161.5 96.5q-106 0 -185.5 -67.5t-79.5 -175.5z" />
<glyph unicode=":" horiz-adv-x="323" d="M20 0l72 313h279l-72 -313h-279zM164 606l72 314h278l-72 -314h-278z" />
<glyph unicode=";" horiz-adv-x="358" d="M-111 -266h228l313 579h-301zM195 606l71 314h279l-72 -314h-278z" />
<glyph unicode="&#x3c;" d="M233 401v226l832 374v-278l-535 -203l535 -221v-279z" />
<glyph unicode="=" d="M238 178v248h909v-248h-909zM238 604v248h909v-248h-909z" />
<glyph unicode="&#x3e;" d="M317 20v279l535 221l-535 203v278l832 -374v-226z" />
<glyph unicode="?" horiz-adv-x="882" d="M246 0l78 344h278l-78 -344h-278zM336 1147l29 215q184 55 327 55q377 0 377 -319q0 -73 -15.5 -128.5t-55.5 -107.5t-93.5 -97t-144.5 -108q-111 -76 -127 -149l-19 -82h-258q1 100 17 184q17 102 192 226q120 85 166.5 132.5t46.5 100.5q0 64 -35 83t-114 19 q-64 0 -137 -6t-114 -12z" />
<glyph unicode="@" horiz-adv-x="1964" d="M156.5 344q3.5 104 29.5 211q60 252 158 431t238 290t315.5 162t402.5 51q209 0 364 -46.5t245.5 -127t135 -194t43.5 -242t-40 -275.5q-89 -337 -205.5 -480.5t-312.5 -143.5q-172 0 -232 90q-68 -34 -185 -64.5t-202 -30.5q-81 0 -140 32.5t-90.5 84.5t-46 122t-12 140 t16.5 142q52 260 179 406.5t337 146.5q97 0 500 -68q-141 -637 -146 -674q-4 -35 17.5 -51t64.5 -16q60 0 107 87t102 302q20 79 29 143t6.5 131t-22 118.5t-61.5 97.5t-106.5 76t-162 47.5t-223.5 17.5q-344 0 -541.5 -180.5t-278.5 -524.5q-20 -84 -25.5 -162.5t5 -153.5 t37 -140t75 -119.5t115.5 -93t161.5 -60t209.5 -21.5q35 0 105 4.5t123 9.5l52 5l-53 -227q-199 -21 -291 -21q-137 0 -254 28t-204.5 79t-155 121.5t-108 156t-60 182.5t-16 201zM905.5 292.5q18.5 -80.5 77.5 -83.5q57 -1 127.5 22.5t122.5 55.5q7 83 106 499 q-136 29 -186 29q-49 0 -89 -26t-68 -73t-47 -100t-34 -120q-28 -123 -9.5 -203.5z" />
<glyph unicode="A" horiz-adv-x="1128" d="M27 0l626 1393h488l-43 -1393h-283l8 242h-405l-109 -242h-282zM524 487h310l28 660h-43z" />
<glyph unicode="B" horiz-adv-x="1173" d="M133 0l322 1393h483q175 0 270 -74.5t95 -226.5q0 -133 -57.5 -219t-172.5 -156q79 -48 106 -103t27 -139q0 -98 -34.5 -182.5t-100.5 -150.5t-172.5 -104t-241.5 -38h-524zM471 242h242q91 0 146.5 63t55.5 164q0 60 -32 87.5t-101 27.5h-231zM604 819h211q85 0 142 60 t57 155q0 117 -121 117h-211z" />
<glyph unicode="C" horiz-adv-x="1011" d="M203 379q0 96 11.5 194t38 200.5t65.5 195.5t97.5 175.5t130.5 142.5t168 95t206 35q75 0 162.5 -15.5t137.5 -30.5l50 -15l-66 -209q-127 24 -295 24q-127 0 -223.5 -113t-144 -286.5t-47.5 -372.5q0 -178 165 -178q71 0 154 6.5t131 13.5l47 7l-22 -219 q-190 -54 -346 -54q-211 0 -315.5 103.5t-104.5 300.5z" />
<glyph unicode="D" horiz-adv-x="1239" d="M133 0l322 1393h438q459 0 459 -424q0 -142 -26 -278.5t-83.5 -262.5t-140 -220.5t-203.5 -151t-266 -56.5h-500zM473 246h184q84 0 154.5 51t115.5 130t76.5 178t44.5 191t13 173q0 99 -56.5 138.5t-168.5 39.5h-156z" />
<glyph unicode="E" horiz-adv-x="1017" d="M133 0l320 1393h817l-58 -246h-532l-76 -328h422l-57 -246h-420l-76 -327h535l-56 -246h-819z" />
<glyph unicode="F" horiz-adv-x="976" d="M133 0l322 1393h802l-57 -246h-520l-96 -420h430l-60 -246h-428l-110 -481h-283z" />
<glyph unicode="G" horiz-adv-x="1163" d="M209 414q0 159 27.5 304t87 273.5t145.5 222.5t210 148.5t273 54.5q100 0 206.5 -20.5t163.5 -40.5l56 -21l-65 -205q-203 41 -383 41q-89 0 -163.5 -49t-122.5 -127.5t-81.5 -179.5t-48 -202.5t-14.5 -200.5q0 -191 205 -191q31 0 63.5 2.5t49.5 4.5l16 3l71 310h-131 l55 233h412l-174 -745q-16 -6 -46 -15t-133 -24t-218 -15q-227 0 -344 110t-117 329z" />
<glyph unicode="H" horiz-adv-x="1269" d="M133 0l322 1393h282l-129 -557h439l129 557h282l-321 -1393h-283l135 590h-438l-135 -590h-283z" />
<glyph unicode="I" horiz-adv-x="548" d="M133 0l322 1393h282l-321 -1393h-283z" />
<glyph unicode="J" horiz-adv-x="579" d="M12 -141l47 245q47 2 69 6t44 21.5t34.5 50.5t26.5 94l259 1117h282l-258 -1117q-23 -99 -42 -161t-48 -112.5t-59.5 -75.5t-84.5 -42t-113.5 -21.5t-156.5 -4.5z" />
<glyph unicode="K" horiz-adv-x="1105" d="M133 0l322 1393h282l-139 -602l131 16l361 586h309l-445 -699l129 -694h-297l-90 559l-155 -14l-125 -545h-283z" />
<glyph unicode="L" horiz-adv-x="864" d="M133 0l322 1393h282l-264 -1147h440l-55 -246h-725z" />
<glyph unicode="M" horiz-adv-x="1615" d="M133 0l322 1393h438l2 -1014l463 1014h446l-321 -1393h-283l266 1147h-12l-498 -1086h-266l-2 1086h-10l-262 -1147h-283z" />
<glyph unicode="N" horiz-adv-x="1333" d="M133 0l322 1393h448l74 -1092h24l248 1092h273l-322 -1393h-426l-90 1112h-25l-260 -1112h-266z" />
<glyph unicode="O" horiz-adv-x="1259" d="M207 401q0 268 81.5 506t237.5 373q158 137 392 137q215 0 333.5 -104t118.5 -322q0 -182 -34.5 -348.5t-112 -313.5t-189.5 -235q-74 -58 -176 -88.5t-213 -30.5q-209 0 -323.5 105.5t-114.5 320.5zM498 430q0 -114 43.5 -161.5t152.5 -47.5q102 0 172 70q97 97 155 292 t58 380q0 114 -43 161t-151 47q-105 0 -166 -61q-101 -100 -161 -304t-60 -376z" />
<glyph unicode="P" horiz-adv-x="1120" d="M133 0l322 1393h401q226 0 328 -94t102 -300q0 -293 -161 -445.5t-443 -152.5h-174l-92 -401h-283zM565 647h154q130 0 203 91t73 257q0 78 -36.5 115t-122.5 37h-156z" />
<glyph unicode="Q" horiz-adv-x="1259" d="M207 401q0 268 81.5 506t237.5 373q158 137 392 137q215 0 333.5 -104t118.5 -322q0 -182 -34.5 -348.5t-112 -313.5t-189.5 -235q-55 -38 -69 -45l98 -276l-268 -88l-88 295q-50 -5 -62 -5q-209 0 -323.5 105.5t-114.5 320.5zM498 430q0 -114 43.5 -161.5t152.5 -47.5 q102 0 172 70q97 97 155 292t58 380q0 114 -43 161t-151 47q-105 0 -166 -61q-101 -100 -161 -304t-60 -376z" />
<glyph unicode="R" horiz-adv-x="1144" d="M133 0l322 1393h401q220 0 325 -94t105 -304q0 -190 -87.5 -325t-223.5 -189l112 -481h-282l-92 442h-195l-102 -442h-283zM573 684h183q110 0 174.5 88t64.5 211q0 90 -34.5 129t-120.5 39h-158z" />
<glyph unicode="S" horiz-adv-x="1013" d="M102 59l48 203q231 -41 374 -41q122 0 183 46t61 157q0 58 -36 90t-171 94q-143 65 -202.5 142t-59.5 211q0 198 129 327t344 129q99 0 206 -19.5t164 -39.5l58 -19l-51 -200q-226 37 -369 37q-91 0 -142.5 -50t-51.5 -133q0 -58 33 -89t157 -87q169 -75 224 -148 t55 -212q0 -231 -142.5 -356.5t-384.5 -125.5q-96 0 -202.5 21t-165.5 42z" />
<glyph unicode="T" horiz-adv-x="933" d="M283 1147l57 246h897l-57 -246h-310l-264 -1147h-282l264 1147h-305z" />
<glyph unicode="U" horiz-adv-x="1218" d="M211 291q0 100 27 227l202 875h283l-213 -920q-18 -77 -18 -135q0 -68 41.5 -92.5t125.5 -24.5q127 0 180.5 56.5t84.5 195.5l213 920h282l-213 -920q-60 -263 -193.5 -380.5t-377.5 -117.5q-198 0 -311 79t-113 237z" />
<glyph unicode="V" horiz-adv-x="1136" d="M319 0l29 1393h283l-49 -1147h67l500 1147h283l-631 -1393h-482z" />
<glyph unicode="W" horiz-adv-x="1771" d="M293 0l63 1393h283l-86 -1133h29l462 1112h312l-68 -1112h29l459 1133h282l-596 -1393h-409l67 1012l-405 -1012h-422z" />
<glyph unicode="X" horiz-adv-x="1064" d="M2 0l524 702l-184 691h299l100 -490l336 490h297l-512 -693l193 -700h-297l-113 498l-346 -498h-297z" />
<glyph unicode="Y" horiz-adv-x="1032" d="M324 1393h286l99 -543l346 543h299l-574 -803l-139 -590h-262l139 602z" />
<glyph unicode="Z" horiz-adv-x="1003" d="M74 0l63 281l719 817l10 49h-528l57 246h856l-65 -285l-723 -813l-12 -49h536l-57 -246h-856z" />
<glyph unicode="[" horiz-adv-x="503" d="M-31 -250l414 1780h469l-57 -234h-181l-305 -1312h180l-57 -234h-463z" />
<glyph unicode="\" horiz-adv-x="991" d="M381 1438h287l270 -1438h-285z" />
<glyph unicode="]" horiz-adv-x="501" d="M-53 -250l57 234h180l305 1312h-180l58 234h462l-413 -1780h-469z" />
<glyph unicode="^" d="M113 641l397 711h233l398 -711h-287l-223 444l-232 -444h-286z" />
<glyph unicode="_" horiz-adv-x="978" d="M-66 -420l58 256h917l-57 -256h-918z" />
<glyph unicode="`" horiz-adv-x="1060" d="M500 1356l131 225l452 -184l-114 -203z" />
<glyph unicode="a" horiz-adv-x="1081" d="M164 348q0 88 17.5 180.5t58.5 186.5t99.5 167.5t148 120t196.5 46.5q67 0 195 -17t223 -34l94 -17l-154 -662q-13 -56 -26.5 -134.5t-21.5 -128.5l-7 -50l-272 -10q18 125 26 160q-5 -7 -15 -19.5t-41 -43.5t-63 -55t-78.5 -43.5t-90.5 -19.5q-149 0 -219 101t-70 272z M442 348q0 -71 22.5 -105t82.5 -34q37 0 97 45.5t101 91.5l41 45l95 395q-136 29 -189 29q-59 0 -108.5 -46.5t-79.5 -118t-46 -150.5t-16 -152z" />
<glyph unicode="b" horiz-adv-x="1079" d="M119 45l319 1389h275l-113 -490q14 12 37.5 29.5t87.5 46.5t119 29q86 0 148.5 -28t95.5 -77.5t48 -105.5t15 -123q0 -157 -36.5 -292t-103.5 -234t-168.5 -155.5t-224.5 -56.5q-98 0 -223 17t-201 34zM436 231q90 -20 178 -20q66 0 118.5 51.5t80.5 128.5t42.5 153.5 t14.5 141.5q0 129 -108 129q-40 0 -94 -25.5t-88 -51.5l-33 -25z" />
<glyph unicode="c" horiz-adv-x="837" d="M168 332q0 151 33.5 280t98.5 227t168 154t234 56q64 0 140.5 -16t121.5 -32l44 -16l-70 -201q-158 27 -248 27q-60 0 -108.5 -38t-77 -100t-43.5 -134.5t-15 -147.5q0 -89 37 -133.5t119 -44.5q39 0 94 4t90 8l35 4l-22 -202q-17 -6 -46 -14.5t-107.5 -23t-143.5 -14.5 q-151 0 -242.5 94.5t-91.5 262.5z" />
<glyph unicode="d" horiz-adv-x="1081" d="M164 338q0 101 20.5 201t63.5 192t103 162t145 112t184 42q38 0 99.5 -10.5t104.5 -21.5l42 -11l100 430h274l-331 -1434h-267l19 106q-5 -5 -13.5 -14t-36 -31.5t-56.5 -40t-72 -31.5t-84 -14q-146 0 -220.5 94.5t-74.5 268.5zM442 340q0 -59 26 -95t79 -36 q34 0 91.5 36.5t98.5 73.5l41 37l99 428q-119 29 -197 29q-55 0 -101.5 -47.5t-75.5 -120t-45 -153t-16 -152.5z" />
<glyph unicode="e" horiz-adv-x="974" d="M166 324q0 114 19.5 218t63.5 197t108 160.5t159 107.5t211 40q358 0 358 -306q0 -100 -32.5 -166.5t-105 -105t-175 -54.5t-254.5 -16h-72q-6 -24 -6 -69q0 -59 42.5 -90t107.5 -31q62 0 147 6.5t139 13.5l54 7l-31 -203q-21 -6 -58 -16t-139 -26t-190 -16 q-177 0 -261.5 84.5t-84.5 264.5zM477 602h84q142 0 198 31t56 104q0 48 -25 68t-77 20q-183 0 -236 -223z" />
<glyph unicode="f" horiz-adv-x="671" d="M53 -432l287 1218h-94l57 238h88l10 41q49 215 128.5 304t244.5 89q42 0 90.5 -12t76.5 -24l28 -11l-49 -201q-73 15 -134 15q-20 0 -36.5 -9.5t-26.5 -22.5t-20 -37.5t-14.5 -42.5l-12.5 -50l-10 -39h215l-58 -233h-209l-184 -791l-129 -432h-248z" />
<glyph unicode="g" horiz-adv-x="991" d="M18 -190q0 51 21.5 94.5t62 77.5t77.5 56.5t89 47.5q-24 24 -32.5 47.5t-8.5 61.5q0 26 12.5 55.5t30.5 53.5t36.5 44t31.5 32l12 11q-68 40 -103.5 99.5t-35.5 156.5q0 175 116.5 288.5t307.5 113.5q44 0 106 -9.5t102 -18.5l40 -9l299 12l-52 -221h-118q8 -46 8 -105 q0 -157 -121.5 -266.5t-306.5 -109.5q-23 0 -45 2.5t-33 5.5l-10 2q-31 -41 -31 -74q0 -25 39.5 -37t153.5 -28q290 -42 290 -259q0 -183 -132 -294t-361 -111q-445 0 -445 281zM268 -127q0 -49 46 -82t143 -33q241 0 241 144q0 38 -32 52.5t-107 27.5q-158 26 -174 30 q-42 -23 -79.5 -62.5t-37.5 -76.5zM463 659q0 -114 143 -114q71 0 116.5 48t45.5 118q0 114 -143 114q-72 0 -117 -47.5t-45 -118.5z" />
<glyph unicode="h" horiz-adv-x="1050" d="M113 0l329 1434h275l-115 -506q5 5 14 13t37 29t56.5 37t69.5 29t79 13q131 0 190.5 -79t59.5 -210q0 -71 -43 -258l-115 -502h-274l110 481q37 157 37 211q0 63 -16 91t-66 28q-28 0 -77 -30.5t-84 -61.5l-35 -31l-158 -688h-274z" />
<glyph unicode="i" horiz-adv-x="497" d="M113 0l235 1024h275l-236 -1024h-274zM371 1130l65 281h277l-64 -281h-278z" />
<glyph unicode="j" horiz-adv-x="497" d="M-143 -252q87 45 126.5 68t69.5 53t39 54.5t21 76.5l235 1024h275l-236 -1024q-14 -61 -23 -95.5t-24.5 -75t-27.5 -61.5t-38 -50t-50.5 -45.5t-70 -42.5t-91.5 -47.5t-119 -53.5zM367 1112l65 281h277l-64 -281h-278z" />
<glyph unicode="k" horiz-adv-x="956" d="M113 0l329 1434h275l-185 -797l70 14l260 371h301l-356 -492l135 -530h-280l-99 424l-82 -12l-94 -412h-274z" />
<glyph unicode="l" horiz-adv-x="499" d="M113 0l329 1434h275l-330 -1434h-274z" />
<glyph unicode="m" horiz-adv-x="1589" d="M113 0l235 1024h262l-10 -98l13.5 13.5t36.5 29.5t57.5 37t73 29.5t85.5 13.5q49 0 88.5 -15t62 -36.5t37.5 -43t20 -36.5l5 -15q7 6 18.5 16t48 35t73 44t86.5 35t94 16q68 0 117 -22t76.5 -63t40 -91t12.5 -113q0 -88 -39 -258l-115 -502h-274l114 481q37 157 37 203 q0 66 -16 96.5t-60 30.5q-34 0 -83.5 -29.5t-82.5 -59.5l-32 -30q-15 -122 -31 -190l-115 -502h-274l110 481q37 157 37 211q0 62 -17.5 90.5t-66.5 28.5q-29 0 -77 -30.5t-82 -61.5l-33 -31l-158 -688h-274z" />
<glyph unicode="n" horiz-adv-x="1050" d="M113 0l235 1024h262l-12 -100q5 5 14.5 13.5t38 30t58 38t70.5 30t79 13.5q131 0 190.5 -79t59.5 -210q0 -71 -43 -258l-115 -502h-274l110 481q37 157 37 211q0 64 -15.5 91.5t-68.5 27.5q-29 0 -77.5 -30.5t-82.5 -61.5l-34 -31l-158 -688h-274z" />
<glyph unicode="o" horiz-adv-x="1015" d="M164 362q0 95 22 192t66.5 185.5t105 157t145 109.5t179.5 41q403 0 403 -388q0 -96 -20.5 -192t-63.5 -185t-103 -157t-145.5 -109t-185.5 -41q-403 0 -403 387zM436 358q0 -71 33.5 -110t97.5 -39q74 0 132 70t86 172.5t28 212.5q0 71 -33.5 110t-97.5 39 q-74 0 -132 -70t-86 -172.5t-28 -212.5z" />
<glyph unicode="p" horiz-adv-x="1079" d="M14 -430l334 1454h268l-20 -106q5 5 14.5 14t38 31.5t58 40t70.5 31.5t79 14q149 0 223 -95.5t74 -253.5q0 -133 -33.5 -259.5t-96 -231t-163 -168.5t-223.5 -64q-43 0 -105 10.5t-102 21.5l-41 11l-104 -450h-271zM440 240q119 -29 197 -29q55 0 101.5 47.5t75 120 t44.5 153t16 152.5q0 59 -25.5 95t-78.5 36q-34 0 -91.5 -36.5t-98.5 -73.5l-41 -37z" />
<glyph unicode="q" horiz-adv-x="1077" d="M164 332q0 134 34.5 260.5t98 228.5t163.5 164t220 62q77 0 205.5 -17t218.5 -34l90 -17l-324 -1409h-274l125 539q-5 -5 -13.5 -14.5t-36 -32.5t-56.5 -40.5t-72 -32t-84 -14.5q-144 0 -219.5 94t-75.5 263zM442 340q0 -59 26 -95t79 -36q34 0 91.5 36.5t98.5 73.5 l41 37l99 428q-121 29 -199 29q-68 0 -123.5 -77t-84 -184t-28.5 -212z" />
<glyph unicode="r" horiz-adv-x="684" d="M113 0l235 1024h273l-37 -147q7 6 19 16.5t49 37.5t73.5 49t86.5 42.5t93 26.5l-80 -287q-44 -14 -116 -43t-122 -51l-50 -23l-150 -645h-274z" />
<glyph unicode="s" horiz-adv-x="884" d="M94 45l51 201q197 -37 334 -37q150 0 150 100q0 26 -28 41.5t-99 36.5q-145 41 -215 96t-70 158q0 128 61 222t156.5 139t208.5 45q96 0 188.5 -16t136.5 -32l44 -16l-49 -203q-212 33 -345 33q-60 0 -93 -28.5t-33 -71.5q0 -33 29 -51.5t116 -45.5q44 -14 70.5 -23 t59 -23t51 -26.5t38.5 -30.5t30 -39t16.5 -48t6.5 -61q0 -192 -125.5 -291t-334.5 -99q-88 0 -177 17.5t-134 35.5z" />
<glyph unicode="t" horiz-adv-x="673" d="M203 197q0 81 30 209l91 385h-111l61 233h105l59 262h275l-60 -262h215l-57 -233h-213l-94 -410q-17 -74 -17 -115q0 -30 14 -43.5t46 -13.5q24 0 58.5 2.5t57.5 4.5l23 3l-22 -196q-12 -5 -33.5 -13t-82 -21.5t-114.5 -13.5q-111 0 -171 63t-60 159z" />
<glyph unicode="u" horiz-adv-x="1050" d="M178 264q0 77 43 258l115 502h274l-110 -481q-37 -157 -37 -211q0 -62 17.5 -90.5t66.5 -28.5q29 0 77.5 30.5t82.5 61.5l34 31l158 688h275l-236 -1024h-262l12 100q-5 -5 -14.5 -13.5t-38 -30t-58 -38t-70.5 -30t-79 -13.5q-131 0 -190.5 79t-59.5 210z" />
<glyph unicode="v" horiz-adv-x="948" d="M250 0l8 1024h268l-28 -797h37l350 797h276l-481 -1024h-430z" />
<glyph unicode="w" horiz-adv-x="1560" d="M217 0l59 1024h277l-66 -791h48l325 771h311l-41 -771h48l305 791h276l-418 -1024h-456l39 637l-258 -637h-449z" />
<glyph unicode="x" horiz-adv-x="880" d="M12 0l402 512l-160 512h278l80 -313l213 313h279l-404 -532l164 -492h-278l-80 301l-209 -301h-285z" />
<glyph unicode="y" horiz-adv-x="950" d="M209 -430l211 430h-170l8 1024h268l-28 -797h30l357 797h276l-680 -1454h-272z" />
<glyph unicode="z" horiz-adv-x="847" d="M70 0l51 229l514 562h-385l59 233h707l-58 -227l-516 -564h394l-60 -233h-706z" />
<glyph unicode="{" horiz-adv-x="589" d="M129 563l49 195q66 17 107 34.5t64 41t32.5 44t19.5 58.5q6 22 21 96.5t27 138.5l12 64q51 171 159.5 241t317.5 78l-45 -235q-84 -7 -124.5 -44.5t-57.5 -103.5l-49 -258q-29 -117 -83 -175.5t-161 -96.5q66 -37 95.5 -79.5t29.5 -112.5q0 -39 -46 -195t-46 -193 q0 -46 30 -72t88 -26l-63 -235q-150 0 -238 67.5t-88 188.5q0 42 43 203t43 202q0 102 -137 174z" />
<glyph unicode="|" horiz-adv-x="686" d="M322 -430v1864h274v-1864h-274z" />
<glyph unicode="}" horiz-adv-x="587" d="M-55 -279l45 236q84 7 125 44t57 103l49 258q29 117 83 176t161 97q-66 37 -95.5 79.5t-29.5 112.5q0 39 46 195t46 192q0 46 -30.5 72.5t-88.5 26.5l64 235q150 0 237.5 -67.5t87.5 -188.5q0 -42 -43 -203t-43 -202q0 -101 138 -174l-49 -195q-53 -14 -90 -29t-59.5 -29 t-37.5 -34.5t-22 -38t-15 -47.5q-6 -22 -21 -96.5t-26 -138.5l-12 -64q-52 -171 -160.5 -241.5t-316.5 -78.5z" />
<glyph unicode="~" d="M246 578q14 12 39 29.5t91.5 47t121.5 29.5q57 0 212.5 -45t202.5 -45q36 0 88 19.5t87 38.5l34 20l17 -219q-4 -4 -12.5 -11t-33.5 -25.5t-51 -32t-63.5 -25t-71.5 -11.5q-60 0 -221.5 45t-196.5 45q-44 0 -99.5 -20t-89.5 -40l-34 -20z" />
<glyph unicode="&#xa1;" horiz-adv-x="329" d="M-76 -410l230 906h258l-195 -906h-293zM190 711l72 313h279l-72 -313h-279z" />
<glyph unicode="&#xa2;" d="M299 387q3 61 18 125q53 211 172.5 323t286.5 123l47 209h221l-53 -215l144 -20l-70 -230q-145 7 -219 7q-121 0 -179.5 -44t-86.5 -153q-26 -107 11 -153t167 -46l221 9l-43 -230q-76 -12 -154 -18l-51 -226h-217l47 211q-73 5 -126.5 33.5t-82.5 73t-42.5 102.5 t-10.5 119z" />
<glyph unicode="&#xa3;" d="M154 0l53 233h194l101 441h-164l55 233h162l18 74q57 226 146 318t266 92q45 0 118.5 -13t124.5 -26l50 -13l-64 -206q-128 16 -210 16q-38 0 -63.5 -12.5t-43.5 -43.5t-27.5 -60t-23.5 -85l-10 -41h321l-55 -233h-320l-102 -441h188l140 37l-7 -235l-151 -35h-696z" />
<glyph unicode="&#xa4;" d="M182 193l150 149q-40 82 -40 173.5t40 174.5l-150 150l189 188l149 -149q82 38 173.5 38t174.5 -38l150 149l188 -188l-149 -150q38 -83 38 -174.5t-38 -173.5l149 -149l-188 -189l-150 150q-83 -40 -174.5 -40t-173.5 40l-149 -150zM542 516.5q0 -64.5 44 -108.5 t108.5 -44t108.5 44t44 108.5t-44 108.5t-108.5 44t-108.5 -44t-44 -108.5z" />
<glyph unicode="&#xa5;" d="M211 256l57 242h297l10 45l-6 22h-284l53 242h143l-221 545h305l201 -473l364 473h365l-438 -545h145l-57 -242h-271l-18 -22l-12 -45h286l-55 -242h-287l-59 -256h-280l61 256h-299z" />
<glyph unicode="&#xa6;" horiz-adv-x="686" d="M322 348h274v-778h-274v778zM322 672v762h274v-762h-274z" />
<glyph unicode="&#xa7;" horiz-adv-x="997" d="M33 -340l78 227q203 -28 307 -28q99 0 159 33t60 90q0 18 -2.5 30t-12 22.5t-19 16.5t-32.5 14t-42 13.5t-58 17t-72 21.5q-129 40 -184 101t-55 155q0 192 196 336q-41 37 -41 168q0 51 19.5 107.5t62.5 114t102.5 103t148 74.5t190.5 29q60 0 141.5 -12.5t132.5 -24.5 l51 -13l-61 -227q-213 33 -303 33q-105 0 -162 -34t-57 -95q0 -17 6 -31.5t21.5 -26t27.5 -19t39.5 -16t41.5 -12t48.5 -11.5t46.5 -11q73 -17 123 -48.5t73.5 -70t32.5 -72t9 -69.5q0 -46 -16 -93t-48.5 -95t-54 -75t-60.5 -71q35 -55 35 -117q0 -32 -4 -66.5t-17.5 -83 t-35.5 -92t-62.5 -88t-93.5 -76.5t-133.5 -52.5t-177.5 -20.5q-60 0 -147 11.5t-144 22.5zM440 442q0 -8 2 -15t5 -12t9.5 -10t11 -8t14.5 -7.5t15.5 -6.5t18.5 -7t19 -7q25 -10 78.5 -30t76.5 -30q23 23 48.5 79.5t25.5 94.5q0 36 -29.5 56.5t-99.5 40.5q-109 27 -125 36 q-20 -25 -45 -80.5t-25 -93.5z" />
<glyph unicode="&#xa8;" horiz-adv-x="1052" d="M440 1231l64 276h227l-65 -276h-226zM838 1231l63 276h227l-65 -276h-225z" />
<glyph unicode="&#xa9;" horiz-adv-x="1312" d="M297 889q0 252 159.5 416.5t405.5 164.5q167 0 297 -80t198 -211.5t68 -289.5q0 -252 -155.5 -417t-411.5 -165q-158 0 -287 76.5t-201.5 210t-72.5 295.5zM424 889q0 -190 124.5 -324.5t309.5 -134.5q125 0 226.5 62t157.5 167t56 230q0 124 -56.5 229t-158 167.5 t-223.5 62.5q-185 0 -310.5 -134.5t-125.5 -324.5zM616 899q0 183 63 254.5t208 71.5q44 0 85 -7.5t60 -15.5l19 -8l-15 -176q-71 12 -137 12q-40 0 -56 -28.5t-16 -102.5q0 -82 17 -118t55 -36q29 0 63.5 2.5t53.5 5.5l20 3l15 -168q-6 -4 -19 -10t-57.5 -16.5t-95.5 -10.5 q-95 0 -149.5 28.5t-84 105t-29.5 214.5z" />
<glyph unicode="&#xaa;" horiz-adv-x="673" d="M205 868q24 103 94 152t209 55l131 6l12 45q2 15 -17.5 23t-62.5 8q-40 0 -108 -3.5t-116 -7.5l-48 -3l29 153q18 6 48 15t110.5 24t144.5 15q51 0 89 -4t73 -14t55.5 -27.5t35.5 -43.5t14 -62.5t-9 -84.5l-66 -289q12 -12 33 -16l-43 -168q-97 0 -149.5 9t-68 21.5 t-26.5 37.5q-11 -7 -31 -18t-72 -29.5t-95 -18.5q-105 0 -148 60.5t-18 164.5zM436 877q-4 -29 8 -41.5t45 -12.5q18 0 43.5 8.5t41.5 16.5l16 8l16 82l-90 -6q-69 -6 -80 -55z" />
<glyph unicode="&#xab;" horiz-adv-x="987" d="M109 434l47 125l512 334l-76 -268l-232 -133l164 -158l-67 -246zM621 434l47 125l512 334l-76 -268l-232 -133l164 -158l-67 -246z" />
<glyph unicode="&#xac;" d="M231 487v246h893v-520h-245v274h-648z" />
<glyph unicode="&#xad;" horiz-adv-x="546" d="M109 420l61 246h518l-61 -246h-518z" />
<glyph unicode="&#xae;" horiz-adv-x="1312" d="M297 889q0 252 159.5 416.5t403.5 164.5q168 0 298.5 -80t198.5 -211.5t68 -289.5q0 -123 -40 -230t-112.5 -185t-179 -122.5t-233.5 -44.5q-159 0 -288.5 76.5t-202 210t-72.5 295.5zM424 889q0 -123 57.5 -228.5t158 -168t220.5 -62.5q188 0 313 134t125 325 q0 124 -56.5 229t-158 167.5t-223.5 62.5q-184 0 -310 -135t-126 -324zM614 565v645h279q107 0 170 -52t63 -163q0 -80 -16.5 -123.5t-60.5 -80.5l84 -226h-205l-58 191h-59v-191h-197zM809 901h57q33 0 51.5 22t18.5 58q0 38 -18 60t-54 22h-55v-162z" />
<glyph unicode="&#xaf;" horiz-adv-x="946" d="M444 1284l52 223h632l-53 -223h-631z" />
<glyph unicode="&#xb0;" d="M522 1110q0 136 85 221.5t222 85.5t222.5 -85.5t85.5 -221.5t-85.5 -220.5t-222.5 -84.5t-222 84.5t-85 220.5zM676 1110q0 -69 42 -112.5t111 -43.5t113.5 43.5t44.5 112.5t-44.5 113.5t-113.5 44.5q-68 0 -110.5 -44t-42.5 -114z" />
<glyph unicode="&#xb1;" d="M203 39v246h942v-246h-942zM203 553v246h346v221h246v-221h350v-246h-350v-205h-246v205h-346z" />
<glyph unicode="&#xb2;" horiz-adv-x="573" d="M272 979l45 184l181 121q62 41 89.5 67t33.5 50q4 18 -12 24.5t-56 6.5q-20 0 -60 -3t-70 -7l-30 -3l43 203q154 18 246 18q126 0 165 -47t11 -157q-17 -69 -54.5 -114.5t-111.5 -90.5l-92 -57h193l-48 -195h-473z" />
<glyph unicode="&#xb3;" horiz-adv-x="573" d="M262 973l60 190q122 -12 190 -12q33 0 48.5 7.5t19.5 25.5t-7 23t-41 5h-135l43 174h131q41 0 50 29q4 18 -8.5 24.5t-39.5 6.5q-34 0 -78 -2.5t-71 -5.5l-27 -2l35 186q143 18 225 18q124 0 175 -44.5t28 -137.5q-24 -106 -94 -143q64 -31 33 -150q-26 -104 -102 -156.5 t-191 -52.5q-44 0 -105 4t-100 8z" />
<glyph unicode="&#xb4;" horiz-adv-x="1144" d="M500 1399l540 186l21 -246l-541 -159z" />
<glyph unicode="&#xb5;" d="M55 -430l207 905l6 21q0 6 4 18l19 80l98 430h275l-101 -430h2l-30 -135q-19 -93 -19 -127q0 -62 17.5 -90.5t66.5 -28.5q29 0 78 30.5t83 61.5l34 31l157 688h275l-236 -1024h-262l12 100q-5 -5 -14.5 -13.5t-38 -30t-58 -38t-70.5 -30t-79 -13.5q-29 0 -57 7l-94 -412 h-275z" />
<glyph unicode="&#xb6;" horiz-adv-x="1157" d="M287 942q0 92 33.5 180t93 157.5t148 112t190.5 42.5h641l-52 -217h-69l-291 -1217h-219l289 1217h-117l-291 -1217h-221l149 627q-78 1 -135 27t-88.5 71t-46 98.5t-14.5 118.5z" />
<glyph unicode="&#xb7;" horiz-adv-x="309" d="M115 424l78 346h276l-78 -346h-276z" />
<glyph unicode="&#xb8;" horiz-adv-x="1619" d="M598 -446l41 165q61 -2 94 -2q74 0 86 50q7 25 -8.5 32.5t-54.5 7.5h-45l45 203h106l-22 -78h12q106 0 156 -41t26 -145q-25 -105 -92 -160t-172 -55q-37 0 -80 6t-68 11z" />
<glyph unicode="&#xb9;" horiz-adv-x="573" d="M387 1464l254 154h197l-158 -639h-217l98 399l-112 -65z" />
<glyph unicode="&#xba;" horiz-adv-x="702" d="M221 901q3 46 19 113q45 183 145.5 260.5t271.5 77.5q62 0 118.5 -13.5t102.5 -47t58 -81.5q20 -88 -6 -198q-50 -206 -151.5 -287.5t-289.5 -81.5q-132 0 -203.5 69t-64.5 189zM459 920q0 -42 17.5 -61t62.5 -19q60 0 94 36t61 132q11 46 11 73q0 82 -89 82 q-57 0 -89 -32t-52 -111q-16 -62 -16 -100z" />
<glyph unicode="&#xbb;" horiz-adv-x="970" d="M39 88l76 268l231 133l-164 158l68 246l348 -346l-47 -125zM530 88l76 268l232 133l-164 158l67 246l349 -346l-48 -125z" />
<glyph unicode="&#xbc;" horiz-adv-x="1298" d="M209 41l883 1429l258 -90l-883 -1429zM324 1464l254 154h196l-158 -639h-217l99 399l-113 -65zM797 72l45 180l182 387h242l-199 -373h55l76 185h186l-47 -185h23l-49 -194h-23l-16 -72h-215l16 72h-276z" />
<glyph unicode="&#xbd;" horiz-adv-x="1325" d="M209 41l883 1429l258 -90l-883 -1429zM324 1464l254 154h196l-158 -639h-217l99 399l-113 -65zM842 0l45 184l180 121q62 41 89.5 67t33.5 50q4 18 -12 24.5t-56 6.5q-20 0 -60 -3.5t-70 -6.5l-29 -3l43 203q153 19 245 19q126 0 165 -47.5t11 -157.5q-17 -69 -54 -115 t-111 -90l-93 -57h193l-47 -195h-473z" />
<glyph unicode="&#xbe;" horiz-adv-x="1292" d="M203 41l882 1429l258 -90l-882 -1429zM221 973l60 190q122 -12 190 -12q33 0 48.5 7.5t19.5 25.5t-6.5 23t-40.5 5h-136l43 174h131q41 0 50 29q4 18 -8.5 24.5t-39.5 6.5q-34 0 -78 -2.5t-71 -5.5l-27 -2l35 186q143 18 225 18q124 0 175 -44.5t28 -137.5 q-24 -106 -94 -143q64 -31 33 -150q-26 -104 -102 -156.5t-191 -52.5q-44 0 -105 4t-100 8zM791 72l45 180l182 387h242l-199 -373h55l76 185h186l-47 -185h23l-49 -194h-23l-16 -72h-215l16 72h-276z" />
<glyph unicode="&#xbf;" horiz-adv-x="884" d="M53 -74q0 73 15.5 128.5t55.5 107.5t93.5 97t144.5 108q111 76 127 149l19 82h258q0 -100 -16 -184q-17 -101 -193 -226q-120 -85 -166.5 -132.5t-46.5 -100.5q0 -64 35.5 -83t114.5 -19q64 0 137 6t114 12l41 6l-28 -215q-185 -55 -328 -55q-377 0 -377 319zM520 680 l78 344h279l-78 -344h-279z" />
<glyph unicode="&#xc0;" horiz-adv-x="1128" d="M27 0l626 1393h488l-43 -1393h-283l8 242h-405l-109 -242h-282zM524 487h310l28 660h-43zM649 1702l135 244l455 -187l-125 -215z" />
<glyph unicode="&#xc1;" horiz-adv-x="1128" d="M27 0l626 1393h488l-43 -1393h-283l8 242h-405l-109 -242h-282zM524 487h310l28 660h-43zM705 1784l540 186l21 -246l-541 -157z" />
<glyph unicode="&#xc2;" horiz-adv-x="1128" d="M27 0l626 1393h488l-43 -1393h-283l8 242h-405l-109 -242h-282zM524 487h310l28 660h-43zM559 1595l361 312h163l197 -312h-250l-53 113l-127 -113h-291z" />
<glyph unicode="&#xc3;" horiz-adv-x="1128" d="M27 0l626 1393h488l-43 -1393h-283l8 242h-405l-109 -242h-282zM524 487h310l28 660h-43zM575 1794q6 5 16 14t39.5 31.5t57 40t63 31.5t62.5 14q53 0 117 -21.5t114.5 -43t69.5 -21.5q23 0 67.5 19.5t77.5 39.5l33 19l4 -193q-5 -5 -14.5 -14t-37.5 -31t-55 -39t-62 -31 t-64 -14q-54 0 -163 44t-144 44q-23 0 -66 -19.5t-74 -39.5l-32 -20z" />
<glyph unicode="&#xc4;" horiz-adv-x="1128" d="M27 0l626 1393h488l-43 -1393h-283l8 242h-405l-109 -242h-282zM524 487h310l28 660h-43zM631 1614l63 276h228l-66 -276h-225zM1038 1614l64 276h227l-67 -276h-224z" />
<glyph unicode="&#xc5;" horiz-adv-x="1128" d="M27 0l614 1364q-9 44 6 104q30 120 117.5 180t210.5 60q117 0 177.5 -59.5t31.5 -180.5q-15 -58 -45 -102l-41 -1366h-283l8 242h-405l-109 -242h-282zM524 487h310l28 660h-43zM823 1468q-6 -29 15 -46t61 -17q42 0 71.5 17t35.5 46q8 34 -17.5 49t-58.5 15 q-41 0 -70.5 -17.5t-36.5 -46.5z" />
<glyph unicode="&#xc6;" horiz-adv-x="1544" d="M29 0l630 1413h1145l-61 -268l-565 4l-78 -326h450l-59 -256h-453l-71 -301h565l-59 -266h-832l57 244h-292l-109 -244h-268zM524 506h238l149 641h-106z" />
<glyph unicode="&#xc7;" horiz-adv-x="1011" d="M203 379q0 96 11.5 194t38 200.5t65.5 195.5t97.5 175.5t130.5 142.5t168 95t206 35q75 0 162.5 -15.5t137.5 -30.5l50 -15l-66 -209q-127 24 -295 24q-127 0 -223.5 -113t-144 -286.5t-47.5 -372.5q0 -178 165 -178q71 0 154 6.5t131 13.5l47 7l-22 -219 q-190 -54 -346 -54h-21l-12 -43h12q106 0 156 -41t26 -145q-25 -105 -92 -160t-172 -55q-37 0 -80 6t-68 11l-24 6l41 165q61 -2 94 -2q74 0 86 50q7 25 -8.5 32.5t-54.5 7.5h-45l39 179q-297 55 -297 393z" />
<glyph unicode="&#xc8;" horiz-adv-x="1017" d="M133 0l320 1393h817l-58 -246h-532l-76 -328h422l-57 -246h-420l-76 -327h535l-56 -246h-819zM553 1702l135 244l455 -187l-125 -215z" />
<glyph unicode="&#xc9;" horiz-adv-x="1017" d="M133 0l320 1393h817l-58 -246h-532l-76 -328h422l-57 -246h-420l-76 -327h535l-56 -246h-819zM694 1784l541 186l20 -246l-540 -157z" />
<glyph unicode="&#xca;" horiz-adv-x="1017" d="M133 0l320 1393h817l-58 -246h-532l-76 -328h422l-57 -246h-420l-76 -327h535l-56 -246h-819zM532 1602l361 311h164l196 -311h-249l-54 112l-127 -112h-291z" />
<glyph unicode="&#xcb;" horiz-adv-x="1017" d="M133 0l320 1393h817l-58 -246h-532l-76 -328h422l-57 -246h-420l-76 -327h535l-56 -246h-819zM588 1614l63 276h228l-66 -276h-225zM995 1614l64 276h227l-67 -276h-224z" />
<glyph unicode="&#xcc;" horiz-adv-x="548" d="M133 0l322 1393h282l-321 -1393h-283zM295 1702l135 244l455 -187l-125 -215z" />
<glyph unicode="&#xcd;" horiz-adv-x="548" d="M133 0l322 1393h282l-321 -1393h-283zM449 1784l540 186l21 -246l-541 -157z" />
<glyph unicode="&#xce;" horiz-adv-x="548" d="M133 0l322 1393h282l-321 -1393h-283zM270 1602l361 311h164l196 -311h-250l-53 112l-127 -112h-291z" />
<glyph unicode="&#xcf;" horiz-adv-x="548" d="M133 0l322 1393h282l-321 -1393h-283zM324 1638l63 277h227l-65 -277h-225zM731 1638l64 277h227l-68 -277h-223z" />
<glyph unicode="&#xd0;" horiz-adv-x="1255" d="M150 0l129 563h-109l59 279h115l127 551h438q459 0 459 -424q0 -142 -26 -278.5t-83.5 -262.5t-140 -220.5t-203.5 -151t-266 -56.5h-499zM489 246h185q84 0 154.5 51t115 130t76 178t44.5 191t13 173q0 99 -56.5 138.5t-168.5 39.5h-156l-69 -305h223l-62 -279h-227z " />
<glyph unicode="&#xd1;" horiz-adv-x="1333" d="M133 0l322 1393h448l74 -1092h24l248 1092h273l-322 -1393h-426l-90 1112h-25l-260 -1112h-266zM666 1792q6 5 16 14t39 31.5t56.5 40t63 31.5t62.5 14q53 0 117 -21.5t114.5 -43t69.5 -21.5q23 0 67.5 19.5t77.5 39.5l33 19l4 -193q-5 -5 -14.5 -14t-37.5 -31t-55 -39 t-62 -31t-64 -14q-54 0 -163 44t-144 44q-23 0 -66 -19.5t-74 -39.5l-32 -20z" />
<glyph unicode="&#xd2;" horiz-adv-x="1259" d="M207 401q0 268 81.5 506t237.5 373q158 137 392 137q215 0 333.5 -104t118.5 -322q0 -182 -34.5 -348.5t-112 -313.5t-189.5 -235q-74 -58 -176 -88.5t-213 -30.5q-209 0 -323.5 105.5t-114.5 320.5zM498 430q0 -114 43.5 -161.5t152.5 -47.5q102 0 172 70q97 97 155 292 t58 380q0 114 -43 161t-151 47q-105 0 -166 -61q-101 -100 -161 -304t-60 -376zM676 1702l135 244l455 -187l-125 -215z" />
<glyph unicode="&#xd3;" horiz-adv-x="1259" d="M207 401q0 268 81.5 506t237.5 373q158 137 392 137q215 0 333.5 -104t118.5 -322q0 -182 -34.5 -348.5t-112 -313.5t-189.5 -235q-74 -58 -176 -88.5t-213 -30.5q-209 0 -323.5 105.5t-114.5 320.5zM498 430q0 -114 43.5 -161.5t152.5 -47.5q102 0 172 70q97 97 155 292 t58 380q0 114 -43 161t-151 47q-105 0 -166 -61q-101 -100 -161 -304t-60 -376zM774 1784l541 186l20 -246l-540 -157z" />
<glyph unicode="&#xd4;" horiz-adv-x="1259" d="M207 401q0 268 81.5 506t237.5 373q158 137 392 137q215 0 333.5 -104t118.5 -322q0 -182 -34.5 -348.5t-112 -313.5t-189.5 -235q-74 -58 -176 -88.5t-213 -30.5q-209 0 -323.5 105.5t-114.5 320.5zM498 430q0 -114 43.5 -161.5t152.5 -47.5q102 0 172 70q97 97 155 292 t58 380q0 114 -43 161t-151 47q-105 0 -166 -61q-101 -100 -161 -304t-60 -376zM633 1595l360 312h164l197 -312h-250l-53 113l-127 -113h-291z" />
<glyph unicode="&#xd5;" horiz-adv-x="1259" d="M207 401q0 268 81.5 506t237.5 373q158 137 392 137q215 0 333.5 -104t118.5 -322q0 -182 -34.5 -348.5t-112 -313.5t-189.5 -235q-74 -58 -176 -88.5t-213 -30.5q-209 0 -323.5 105.5t-114.5 320.5zM498 430q0 -114 43.5 -161.5t152.5 -47.5q102 0 172 70q97 97 155 292 t58 380q0 114 -43 161t-151 47q-105 0 -166 -61q-101 -100 -161 -304t-60 -376zM672 1792q6 5 16 14t39 31.5t56.5 40t63 31.5t62.5 14q53 0 117 -21.5t114.5 -43t69.5 -21.5q23 0 67.5 19.5t78.5 39.5l33 19l4 -193q-5 -5 -14.5 -14t-38 -31t-55.5 -39t-62 -31t-64 -14 q-54 0 -163 44t-144 44q-23 0 -66 -19.5t-74 -39.5l-32 -20z" />
<glyph unicode="&#xd6;" horiz-adv-x="1259" d="M207 401q0 268 81.5 506t237.5 373q158 137 392 137q215 0 333.5 -104t118.5 -322q0 -182 -34.5 -348.5t-112 -313.5t-189.5 -235q-74 -58 -176 -88.5t-213 -30.5q-209 0 -323.5 105.5t-114.5 320.5zM498 430q0 -114 43.5 -161.5t152.5 -47.5q102 0 172 70q97 97 155 292 t58 380q0 114 -43 161t-151 47q-105 0 -166 -61q-101 -100 -161 -304t-60 -376zM657 1599l64 277h248l-66 -277h-246zM1075 1599l64 277h247l-65 -277h-246z" />
<glyph unicode="&#xd7;" d="M233 227l291 285l-288 283l174 174l282 -289l287 293l172 -174l-293 -287l293 -285l-174 -174l-285 291l-284 -289z" />
<glyph unicode="&#xd8;" horiz-adv-x="1259" d="M109 -166l186 275q-88 108 -88 292q0 268 81.5 506t237.5 373q158 137 392 137q142 0 235 -41l186 273l152 -64l-209 -307q88 -109 88 -287q0 -182 -34.5 -348.5t-112 -313.5t-189.5 -235q-74 -58 -176 -88.5t-213 -30.5q-125 0 -223 39l-178 -262zM498 410l225 333 l276 408q-41 20 -114 20q-105 0 -166 -61q-101 -100 -161 -304t-60 -376v-20zM578 242q44 -21 116 -21q102 0 172 70q97 97 155 292t58 380v16l-213 -313z" />
<glyph unicode="&#xd9;" horiz-adv-x="1218" d="M211 291q0 100 27 227l202 875h283l-213 -920q-18 -77 -18 -135q0 -68 41.5 -92.5t125.5 -24.5q127 0 180.5 56.5t84.5 195.5l213 920h282l-213 -920q-60 -263 -193.5 -380.5t-377.5 -117.5q-198 0 -311 79t-113 237zM662 1702l135 244l454 -187l-125 -215z" />
<glyph unicode="&#xda;" horiz-adv-x="1218" d="M211 291q0 100 27 227l202 875h283l-213 -920q-18 -77 -18 -135q0 -68 41.5 -92.5t125.5 -24.5q127 0 180.5 56.5t84.5 195.5l213 920h282l-213 -920q-60 -263 -193.5 -380.5t-377.5 -117.5q-198 0 -311 79t-113 237zM719 1784l541 186l20 -246l-541 -157z" />
<glyph unicode="&#xdb;" horiz-adv-x="1218" d="M211 291q0 100 27 227l202 875h283l-213 -920q-18 -77 -18 -135q0 -68 41.5 -92.5t125.5 -24.5q127 0 180.5 56.5t84.5 195.5l213 920h282l-213 -920q-60 -263 -193.5 -380.5t-377.5 -117.5q-198 0 -311 79t-113 237zM604 1595l361 312h163l197 -312h-250l-53 113 l-127 -113h-291z" />
<glyph unicode="&#xdc;" horiz-adv-x="1218" d="M211 291q0 100 27 227l202 875h283l-213 -920q-18 -77 -18 -135q0 -68 41.5 -92.5t125.5 -24.5q127 0 180.5 56.5t84.5 195.5l213 920h282l-213 -920q-60 -263 -193.5 -380.5t-377.5 -117.5q-198 0 -311 79t-113 237zM625 1599l63 277h248l-66 -277h-245zM1042 1599 l64 277h248l-66 -277h-246z" />
<glyph unicode="&#xdd;" horiz-adv-x="1032" d="M324 1393h286l99 -543l346 543h299l-574 -803l-139 -590h-262l139 602zM686 1784l541 186l20 -246l-540 -157z" />
<glyph unicode="&#xde;" horiz-adv-x="1101" d="M129 0l334 1413h268l-51 -199h197q136 0 227 -68t122 -181.5t1 -251.5q-53 -239 -209 -376t-379 -134l-197 2l-47 -205h-266zM508 483h194q195 0 254 230q13 43 10 83t-17.5 70.5t-49.5 49.5t-86 20l-197 4z" />
<glyph unicode="&#xdf;" horiz-adv-x="1155" d="M111 0l251 1065q28 114 70.5 190.5t106.5 121t142 63t187 18.5q198 0 302 -77.5t104 -219.5q0 -107 -41 -176.5t-146 -110.5q-108 -43 -146 -68.5t-38 -64.5q0 -31 24 -53.5t111 -79.5q40 -26 57.5 -38.5t41.5 -35t33 -42.5t16.5 -51t7.5 -72q0 -182 -113 -288t-309 -106 q-68 0 -150.5 14.5t-131.5 28.5l-48 15l60 200q143 -24 237 -24q88 0 132 35.5t44 85.5q0 36 -21 57.5t-101 69.5q-97 58 -132.5 106.5t-35.5 126.5q0 119 53 186.5t164 118.5q98 46 125.5 70.5t27.5 67.5q0 42 -39 67t-116 25q-97 0 -151 -46t-79 -151l-241 -1028h-258z " />
<glyph unicode="&#xe0;" horiz-adv-x="1081" d="M164 348q0 88 17.5 180.5t58.5 186.5t99.5 167.5t148 120t196.5 46.5q67 0 195 -17t223 -34l94 -17l-154 -662q-13 -56 -26.5 -134.5t-21.5 -128.5l-7 -50l-272 -10q18 125 26 160q-5 -7 -15 -19.5t-41 -43.5t-63 -55t-78.5 -43.5t-90.5 -19.5q-149 0 -219 101t-70 272z M442 348q0 -71 22.5 -105t82.5 -34q37 0 97 45.5t101 91.5l41 45l95 395q-136 29 -189 29q-59 0 -108.5 -46.5t-79.5 -118t-46 -150.5t-16 -152zM590 1356l131 225l453 -184l-115 -203z" />
<glyph unicode="&#xe1;" horiz-adv-x="1081" d="M164 348q0 88 17.5 180.5t58.5 186.5t99.5 167.5t148 120t196.5 46.5q67 0 195 -17t223 -34l94 -17l-154 -662q-13 -56 -26.5 -134.5t-21.5 -128.5l-7 -50l-272 -10q18 125 26 160q-5 -7 -15 -19.5t-41 -43.5t-63 -55t-78.5 -43.5t-90.5 -19.5q-149 0 -219 101t-70 272z M442 348q0 -71 22.5 -105t82.5 -34q37 0 97 45.5t101 91.5l41 45l95 395q-136 29 -189 29q-59 0 -108.5 -46.5t-79.5 -118t-46 -150.5t-16 -152zM668 1399l540 186l21 -246l-541 -159z" />
<glyph unicode="&#xe2;" horiz-adv-x="1081" d="M164 348q0 88 17.5 180.5t58.5 186.5t99.5 167.5t148 120t196.5 46.5q67 0 195 -17t223 -34l94 -17l-154 -662q-13 -56 -26.5 -134.5t-21.5 -128.5l-7 -50l-272 -10q18 125 26 160q-5 -7 -15 -19.5t-41 -43.5t-63 -55t-78.5 -43.5t-90.5 -19.5q-149 0 -219 101t-70 272z M434 1178l344 358h205l176 -358h-270l-49 131l-119 -131h-287zM442 348q0 -71 22.5 -105t82.5 -34q37 0 97 45.5t101 91.5l41 45l95 395q-136 29 -189 29q-59 0 -108.5 -46.5t-79.5 -118t-46 -150.5t-16 -152z" />
<glyph unicode="&#xe3;" horiz-adv-x="1081" d="M164 348q0 88 17.5 180.5t58.5 186.5t99.5 167.5t148 120t196.5 46.5q67 0 195 -17t223 -34l94 -17l-154 -662q-13 -56 -26.5 -134.5t-21.5 -128.5l-7 -50l-272 -10q18 125 26 160q-5 -7 -15 -19.5t-41 -43.5t-63 -55t-78.5 -43.5t-90.5 -19.5q-149 0 -219 101t-70 272z M442 348q0 -71 22.5 -105t82.5 -34q37 0 97 45.5t101 91.5l41 45l95 395q-136 29 -189 29q-59 0 -108.5 -46.5t-79.5 -118t-46 -150.5t-16 -152zM563 1405q6 5 15.5 14t39 32t56.5 40.5t62.5 32t62.5 14.5q49 0 104.5 -22t98.5 -44t63 -22q22 0 66 20t77 40l33 20l8 -191 q-6 -5 -15.5 -14t-38.5 -31.5t-56.5 -40t-63 -31.5t-63.5 -14q-53 0 -146.5 45t-120.5 45q-24 0 -68 -20t-76 -40l-32 -21z" />
<glyph unicode="&#xe4;" horiz-adv-x="1081" d="M164 348q0 88 17.5 180.5t58.5 186.5t99.5 167.5t148 120t196.5 46.5q67 0 195 -17t223 -34l94 -17l-154 -662q-13 -56 -26.5 -134.5t-21.5 -128.5l-7 -50l-272 -10q18 125 26 160q-5 -7 -15 -19.5t-41 -43.5t-63 -55t-78.5 -43.5t-90.5 -19.5q-149 0 -219 101t-70 272z M442 348q0 -71 22.5 -105t82.5 -34q37 0 97 45.5t101 91.5l41 45l95 395q-136 29 -189 29q-59 0 -108.5 -46.5t-79.5 -118t-46 -150.5t-16 -152zM496 1231l63 276h248l-66 -276h-245zM913 1231l64 276h248l-66 -276h-246z" />
<glyph unicode="&#xe5;" horiz-adv-x="1081" d="M164 348q0 88 17.5 180.5t58.5 186.5t99.5 167.5t148 120t196.5 46.5q67 0 195 -17t223 -34l94 -17l-154 -662q-13 -56 -26.5 -134.5t-21.5 -128.5l-7 -50l-272 -10q18 125 26 160q-5 -7 -15 -19.5t-41 -43.5t-63 -55t-78.5 -43.5t-90.5 -19.5q-149 0 -219 101t-70 272z M442 348q0 -71 22.5 -105t82.5 -34q37 0 97 45.5t101 91.5l41 45l95 395q-136 29 -189 29q-59 0 -108.5 -46.5t-79.5 -118t-46 -150.5t-16 -152zM678 1343q24 96 95 158t167 62q97 0 135 -62.5t15 -159.5q-24 -103 -96.5 -162t-168.5 -59q-97 0 -135 63t-12 160zM825 1343 q-8 -24 5.5 -42.5t39.5 -18.5t46 17t28 42q7 25 -7.5 41.5t-37.5 16.5q-26 0 -46 -15.5t-28 -40.5z" />
<glyph unicode="&#xe6;" horiz-adv-x="1462" d="M117 313q59 258 313 305q138 24 285 21q7 21 10 45.5t0.5 49.5t-18 41t-43.5 16q-64 0 -157 -7.5t-155 -14.5l-61 -7l43 239q260 46 401 46q172 0 234 -84q116 84 272 84q150 0 228.5 -71.5t86.5 -201.5q6 -91 -26 -207l-47 -174l-551 4q-10 -48 -4 -84q17 -90 139 -90 q63 0 151 4.5t144 9.5l57 5l-47 -209q-21 -6 -57.5 -16t-137 -26t-188.5 -16q-208 0 -284 101q-53 -29 -173.5 -65t-187.5 -36q-85 0 -145 50t-81.5 127.5t-0.5 160.5zM379 322q-9 -40 6 -75.5t55 -35.5q92 0 207 27q-10 78 21 196q-52 0 -162 -8q-46 -3 -81.5 -31 t-45.5 -73zM979 606l307 -4q19 78 10 131q-17 78 -116 78q-86 0 -130.5 -52t-70.5 -153z" />
<glyph unicode="&#xe7;" horiz-adv-x="839" d="M170 332q0 151 34 280t99 227t168 154t234 56q64 0 140 -16t121 -32l44 -16l-70 -201q-158 27 -248 27q-60 0 -108 -38t-76.5 -100t-43.5 -134.5t-15 -147.5q0 -89 36.5 -133.5t118.5 -44.5q39 0 94 4t90 8l35 4l-22 -202q-129 -46 -264 -52l-13 -43h13q106 0 156 -41 t26 -145q-25 -105 -92 -160t-172 -55q-37 0 -80 6t-67 11l-25 6l41 165q61 -2 94 -2q74 0 86 50q7 25 -9 32.5t-55 7.5h-45l39 175q-123 21 -193.5 111.5t-70.5 238.5z" />
<glyph unicode="&#xe8;" horiz-adv-x="974" d="M166 324q0 114 19.5 218t63.5 197t108 160.5t159 107.5t211 40q358 0 358 -306q0 -100 -32.5 -166.5t-105 -105t-175 -54.5t-254.5 -16h-72q-6 -24 -6 -69q0 -59 42.5 -90t107.5 -31q62 0 147 6.5t139 13.5l54 7l-31 -203q-21 -6 -58 -16t-139 -26t-190 -16 q-177 0 -261.5 84.5t-84.5 264.5zM403 1356l132 225l452 -184l-115 -203zM477 602h84q142 0 198 31t56 104q0 48 -25 68t-77 20q-183 0 -236 -223z" />
<glyph unicode="&#xe9;" horiz-adv-x="974" d="M166 324q0 114 19.5 218t63.5 197t108 160.5t159 107.5t211 40q358 0 358 -306q0 -100 -32.5 -166.5t-105 -105t-175 -54.5t-254.5 -16h-72q-6 -24 -6 -69q0 -59 42.5 -90t107.5 -31q62 0 147 6.5t139 13.5l54 7l-31 -203q-21 -6 -58 -16t-139 -26t-190 -16 q-177 0 -261.5 84.5t-84.5 264.5zM477 602h84q142 0 198 31t56 104q0 48 -25 68t-77 20q-183 0 -236 -223zM557 1399l541 186l20 -246l-540 -159z" />
<glyph unicode="&#xea;" horiz-adv-x="974" d="M166 324q0 114 19.5 218t63.5 197t108 160.5t159 107.5t211 40q358 0 358 -306q0 -100 -32.5 -166.5t-105 -105t-175 -54.5t-254.5 -16h-72q-6 -24 -6 -69q0 -59 42.5 -90t107.5 -31q62 0 147 6.5t139 13.5l54 7l-31 -203q-21 -6 -58 -16t-139 -26t-190 -16 q-177 0 -261.5 84.5t-84.5 264.5zM379 1178l344 358h205l176 -358h-270l-50 131l-118 -131h-287zM477 602h84q142 0 198 31t56 104q0 48 -25 68t-77 20q-183 0 -236 -223z" />
<glyph unicode="&#xeb;" horiz-adv-x="974" d="M166 324q0 114 19.5 218t63.5 197t108 160.5t159 107.5t211 40q358 0 358 -306q0 -100 -32.5 -166.5t-105 -105t-175 -54.5t-254.5 -16h-72q-6 -24 -6 -69q0 -59 42.5 -90t107.5 -31q62 0 147 6.5t139 13.5l54 7l-31 -203q-21 -6 -58 -16t-139 -26t-190 -16 q-177 0 -261.5 84.5t-84.5 264.5zM432 1231l64 276h247l-65 -276h-246zM477 602h84q142 0 198 31t56 104q0 48 -25 68t-77 20q-183 0 -236 -223zM850 1231l63 276h248l-65 -276h-246z" />
<glyph unicode="&#xec;" horiz-adv-x="497" d="M113 0l235 1024h275l-236 -1024h-274zM145 1356l131 225l453 -184l-115 -203z" />
<glyph unicode="&#xed;" horiz-adv-x="497" d="M113 0l235 1024h275l-236 -1024h-274zM352 1399l541 186l20 -246l-540 -159z" />
<glyph unicode="&#xee;" horiz-adv-x="497" d="M113 0l235 1024h275l-236 -1024h-274zM141 1178l344 358h205l176 -358h-270l-49 131l-119 -131h-287z" />
<glyph unicode="&#xef;" horiz-adv-x="497" d="M113 0l235 1024h275l-236 -1024h-274zM182 1231l64 276h248l-66 -276h-246zM600 1231l64 276h247l-65 -276h-246z" />
<glyph unicode="&#xf0;" horiz-adv-x="1079" d="M148 310.5q0 68.5 18 142.5q53 198 192 321t336 123q59 0 117.5 -11.5t87.5 -22.5l29 -11q33 182 -148 262l-219 -151l-94 147l92 64l-131 18l90 238q200 -9 336 -54l201 137l88 -147l-111 -78q241 -176 146 -565q-47 -192 -103 -325t-134.5 -229.5t-184.5 -141.5 t-246 -45q-86 0 -155.5 25.5t-112.5 70t-68.5 104.5t-25.5 128.5zM431 343.5q1 -47.5 35.5 -74.5t104.5 -27q212 0 303 364q-90 45 -219 45q-73 0 -129 -54.5t-80 -141.5q-16 -64 -15 -111.5z" />
<glyph unicode="&#xf1;" horiz-adv-x="1050" d="M113 0h274l158 688q5 5 14 13.5t35 29.5t49 37t50.5 29.5t45.5 13.5q53 0 68.5 -27.5t15.5 -91.5q0 -54 -37 -211l-110 -481h274l115 502q43 187 43 258q0 131 -59.5 210t-190.5 79q-60 0 -125 -31.5t-100 -62.5l-35 -31l12 100h-262zM506 1405q6 5 15.5 14t38.5 32 t56.5 40.5t62.5 32t62 14.5q49 0 104.5 -22t99 -44t63.5 -22q22 0 66 20t77 40l33 20l8 -191q-6 -5 -15.5 -14t-39 -31.5t-57 -40t-63 -31.5t-63.5 -14q-53 0 -146 45t-120 45q-24 0 -68 -20t-76 -40l-32 -21z" />
<glyph unicode="&#xf2;" horiz-adv-x="1015" d="M164 362q0 95 22 192t66.5 185.5t105 157t145 109.5t179.5 41q403 0 403 -388q0 -96 -20.5 -192t-63.5 -185t-103 -157t-145.5 -109t-185.5 -41q-403 0 -403 387zM436 358q0 -71 33.5 -110t97.5 -39q74 0 132 70t86 172.5t28 212.5q0 71 -33.5 110t-97.5 39 q-74 0 -132 -70t-86 -172.5t-28 -212.5zM465 1356l131 225l453 -184l-115 -203z" />
<glyph unicode="&#xf3;" horiz-adv-x="1015" d="M164 362q0 95 22 192t66.5 185.5t105 157t145 109.5t179.5 41q403 0 403 -388q0 -96 -20.5 -192t-63.5 -185t-103 -157t-145.5 -109t-185.5 -41q-403 0 -403 387zM436 358q0 -71 33.5 -110t97.5 -39q74 0 132 70t86 172.5t28 212.5q0 71 -33.5 110t-97.5 39 q-74 0 -132 -70t-86 -172.5t-28 -212.5zM559 1399l541 186l20 -246l-540 -159z" />
<glyph unicode="&#xf4;" horiz-adv-x="1015" d="M164 362q0 95 22 192t66.5 185.5t105 157t145 109.5t179.5 41q403 0 403 -388q0 -96 -20.5 -192t-63.5 -185t-103 -157t-145.5 -109t-185.5 -41q-403 0 -403 387zM410 1178l344 358h204l177 -358h-271l-49 131l-119 -131h-286zM436 358q0 -71 33.5 -110t97.5 -39 q74 0 132 70t86 172.5t28 212.5q0 71 -33.5 110t-97.5 39q-74 0 -132 -70t-86 -172.5t-28 -212.5z" />
<glyph unicode="&#xf5;" horiz-adv-x="1015" d="M164 362q0 95 22 192t66.5 185.5t105 157t145 109.5t179.5 41q403 0 403 -388q0 -96 -20.5 -192t-63.5 -185t-103 -157t-145.5 -109t-185.5 -41q-403 0 -403 387zM436 358q0 -71 33.5 -110t97.5 -39q74 0 132 70t86 172.5t28 212.5q0 71 -33.5 110t-97.5 39 q-74 0 -132 -70t-86 -172.5t-28 -212.5zM455 1405q6 5 15.5 14t38.5 32t56.5 40.5t62.5 32t62 14.5q49 0 104.5 -22t98.5 -44t63 -22q22 0 66 20t78 40l33 20l8 -191q-6 -5 -15.5 -14t-39 -31.5t-57 -40t-63 -31.5t-63.5 -14q-53 0 -146 45t-120 45q-24 0 -68 -20t-76 -40 l-32 -21z" />
<glyph unicode="&#xf6;" horiz-adv-x="1015" d="M164 362q0 95 22 192t66.5 185.5t105 157t145 109.5t179.5 41q403 0 403 -388q0 -96 -20.5 -192t-63.5 -185t-103 -157t-145.5 -109t-185.5 -41q-403 0 -403 387zM436 358q0 -71 33.5 -110t97.5 -39q74 0 132 70t86 172.5t28 212.5q0 71 -33.5 110t-97.5 39 q-74 0 -132 -70t-86 -172.5t-28 -212.5zM467 1231l63 276h228l-66 -276h-225zM864 1231l64 276h227l-65 -276h-226z" />
<glyph unicode="&#xf7;" d="M221 391v246h942v-246h-942zM555 35v270h270v-270h-270zM555 721v270h270v-270h-270z" />
<glyph unicode="&#xf8;" horiz-adv-x="1015" d="M115 -156l149 234q-98 95 -98 289q0 95 22 192t66.5 185t105 156.5t145 109.5t179.5 41q94 0 174 -25l131 215l146 -63l-146 -228q98 -95 98 -286q0 -96 -20.5 -192t-63.5 -185t-103 -157t-145.5 -109t-185.5 -41q-96 0 -176 22l-135 -221zM438 346l127 199l162 266 q-18 6 -43 6q-74 0 -132 -70t-86 -172.5t-28 -212.5v-16zM526 217q24 -4 43 -4q74 0 132 70t86 172.5t28 212.5v10l-127 -197z" />
<glyph unicode="&#xf9;" horiz-adv-x="1050" d="M178 264q0 77 43 258l115 502h274l-110 -481q-37 -157 -37 -211q0 -62 17.5 -90.5t66.5 -28.5q29 0 77.5 30.5t82.5 61.5l34 31l158 688h275l-236 -1024h-262l12 100q-5 -5 -14.5 -13.5t-38 -30t-58 -38t-70.5 -30t-79 -13.5q-131 0 -190.5 79t-59.5 210zM473 1356 l131 225l453 -184l-115 -203z" />
<glyph unicode="&#xfa;" horiz-adv-x="1050" d="M178 264q0 77 43 258l115 502h274l-110 -481q-37 -157 -37 -211q0 -62 17.5 -90.5t66.5 -28.5q29 0 77.5 30.5t82.5 61.5l34 31l158 688h275l-236 -1024h-262l12 100q-5 -5 -14.5 -13.5t-38 -30t-58 -38t-70.5 -30t-79 -13.5q-131 0 -190.5 79t-59.5 210zM567 1399 l541 186l20 -246l-540 -159z" />
<glyph unicode="&#xfb;" horiz-adv-x="1050" d="M178 264q0 77 43 258l115 502h274l-110 -481q-37 -157 -37 -211q0 -62 17.5 -90.5t66.5 -28.5q29 0 77.5 30.5t82.5 61.5l34 31l158 688h275l-236 -1024h-262l12 100q-5 -5 -14.5 -13.5t-38 -30t-58 -38t-70.5 -30t-79 -13.5q-131 0 -190.5 79t-59.5 210zM403 1178 l345 358h204l176 -358h-270l-49 131l-119 -131h-287z" />
<glyph unicode="&#xfc;" horiz-adv-x="1050" d="M178 264q0 77 43 258l115 502h274l-110 -481q-37 -157 -37 -211q0 -62 17.5 -90.5t66.5 -28.5q29 0 77.5 30.5t82.5 61.5l34 31l158 688h275l-236 -1024h-262l12 100q-5 -5 -14.5 -13.5t-38 -30t-58 -38t-70.5 -30t-79 -13.5q-131 0 -190.5 79t-59.5 210zM442 1231 l64 276h248l-66 -276h-246zM860 1231l64 276h247l-65 -276h-246z" />
<glyph unicode="&#xfd;" horiz-adv-x="950" d="M209 -430l211 430h-170l8 1024h268l-28 -797h30l357 797h276l-680 -1454h-272zM539 1399l540 186l21 -246l-541 -159z" />
<glyph unicode="&#xfe;" horiz-adv-x="1013" d="M8 -426l438 1856h259l-109 -469q1 0 14 9.5t33.5 22t45.5 25t57 21t61 8.5q77 0 134 -23t89 -64t50.5 -92t20 -111.5t-6 -118t-23.5 -116.5q-57 -209 -134 -329t-178.5 -169t-250.5 -49q-34 0 -69 2t-56 4.5t-21 4.5l-96 -412h-258zM422 231l137 -12q170 0 248 303 q12 44 16 86.5t-0.5 87t-32 72t-75.5 27.5q-29 0 -73.5 -20.5t-74.5 -39.5t-30 -18z" />
<glyph unicode="&#xff;" horiz-adv-x="950" d="M209 -430l211 430h-170l8 1024h268l-28 -797h30l357 797h276l-680 -1454h-272zM406 1231l63 276h248l-66 -276h-245zM823 1231l64 276h248l-66 -276h-246z" />
<glyph unicode="&#x152;" horiz-adv-x="1701" d="M195 309q-9 167 45 398q89 379 255.5 555t419.5 176q80 0 222 -25h827l-61 -268h-566l-80 -322h451l-59 -256l-449 4l-72 -303h564l-62 -268h-821q-158 -25 -238 -25q-182 0 -273.5 84t-102.5 250zM475 440q0 -103 46.5 -148.5t150.5 -45.5q54 0 190 12l215 897 q-105 12 -190 12q-138 0 -224.5 -103t-146.5 -357q-41 -169 -41 -267z" />
<glyph unicode="&#x153;" horiz-adv-x="1554" d="M164 215q-23 140 16 297q24 93 51.5 166t73 145t103.5 119t143 76t190 29q192 0 279 -111q129 111 311 111q146 0 227 -65t93 -183q12 -117 -21 -217l-59 -189l-549 4q-12 -54 -4 -92q19 -82 145 -82q63 0 151.5 4.5t145.5 9.5l58 5l-48 -209q-21 -6 -57.5 -16t-138 -26 t-189.5 -16q-200 0 -276 101q-138 -101 -320 -101q-286 0 -325 240zM426 301q19 -82 119 -82q27 0 51.5 7t43.5 16t36.5 28t29.5 33.5t24.5 41.5t19.5 43t17 47t14 45t12 46q20 75 20 148q0 65 -29.5 97t-99.5 32q-52 0 -92 -21.5t-67.5 -63.5t-46 -90.5t-34.5 -115.5 q-34 -142 -18 -211zM1069 606l311 -4q23 90 15 131q-6 34 -32 49t-81 15q-92 0 -141 -47t-72 -144z" />
<glyph unicode="&#x178;" horiz-adv-x="1032" d="M324 1393h286l99 -543l346 543h299l-574 -803l-139 -590h-262l139 602zM559 1614l64 276h227l-66 -276h-225zM967 1614l63 276h227l-67 -276h-223z" />
<glyph unicode="&#x2c6;" horiz-adv-x="1619" d="M723 1178l344 358h164l176 -358h-250l-49 131l-119 -131h-266z" />
<glyph unicode="&#x2dc;" horiz-adv-x="913" d="M403 1405q6 5 15.5 14t39 32t56.5 40.5t62.5 32t62.5 14.5q49 0 104.5 -22t98.5 -44t63 -22q22 0 66 20t77 40l33 20l9 -191q-6 -5 -15.5 -14t-39 -31.5t-57 -40t-63 -31.5t-63.5 -14q-53 0 -146 45t-120 45q-24 0 -68 -20t-76 -40l-32 -21z" />
<glyph unicode="&#x2000;" horiz-adv-x="985" />
<glyph unicode="&#x2001;" horiz-adv-x="1970" />
<glyph unicode="&#x2002;" horiz-adv-x="985" />
<glyph unicode="&#x2003;" horiz-adv-x="1970" />
<glyph unicode="&#x2004;" horiz-adv-x="656" />
<glyph unicode="&#x2005;" horiz-adv-x="492" />
<glyph unicode="&#x2006;" horiz-adv-x="328" />
<glyph unicode="&#x2007;" horiz-adv-x="328" />
<glyph unicode="&#x2008;" horiz-adv-x="246" />
<glyph unicode="&#x2009;" horiz-adv-x="394" />
<glyph unicode="&#x200a;" horiz-adv-x="109" />
<glyph unicode="&#x2010;" horiz-adv-x="546" d="M109 420l61 246h518l-61 -246h-518z" />
<glyph unicode="&#x2011;" horiz-adv-x="546" d="M109 420l61 246h518l-61 -246h-518z" />
<glyph unicode="&#x2012;" horiz-adv-x="546" d="M109 420l61 246h518l-61 -246h-518z" />
<glyph unicode="&#x2013;" horiz-adv-x="1077" d="M154 428v234h1024v-234h-1024z" />
<glyph unicode="&#x2014;" horiz-adv-x="2101" d="M154 428v234h2048v-234h-2048z" />
<glyph unicode="&#x2018;" horiz-adv-x="356" d="M197 868l280 523h205l-215 -523h-270z" />
<glyph unicode="&#x2019;" horiz-adv-x="356" d="M197 870l215 523h270l-281 -523h-204z" />
<glyph unicode="&#x201a;" horiz-adv-x="307" d="M-135 -338l215 522h270l-280 -522h-205z" />
<glyph unicode="&#x201c;" horiz-adv-x="743" d="M193 870l280 523h205l-215 -523h-270zM582 870l280 523h205l-215 -523h-270z" />
<glyph unicode="&#x201d;" horiz-adv-x="745" d="M197 870l215 523h270l-281 -523h-204zM586 870l215 523h270l-280 -523h-205z" />
<glyph unicode="&#x201e;" horiz-adv-x="710" d="M-186 -348l280 522h205l-215 -522h-270zM264 -348l281 522h205l-215 -522h-271z" />
<glyph unicode="&#x2022;" horiz-adv-x="937" d="M328 205v573h512v-573h-512z" />
<glyph unicode="&#x2026;" horiz-adv-x="1257" d="M16 0l72 313h279l-72 -313h-279zM487 0l72 313h279l-72 -313h-279zM963 0l71 313h279l-72 -313h-278z" />
<glyph unicode="&#x202f;" horiz-adv-x="394" />
<glyph unicode="&#x2039;" horiz-adv-x="475" d="M109 434l47 125l512 334l-76 -268l-232 -133l164 -158l-67 -246z" />
<glyph unicode="&#x203a;" horiz-adv-x="479" d="M39 88l76 268l231 133l-164 158l68 246l348 -346l-47 -125z" />
<glyph unicode="&#x205f;" horiz-adv-x="492" />
<glyph unicode="&#x20ac;" d="M186 375l50 215h83q14 82 29 141h-82l51 215h101q41 94 95 169t125.5 135t163.5 93t199 33q73 0 158 -15t133 -29l49 -15l-63 -203q-123 23 -287 23q-163 0 -276 -191h422l-50 -215h-456q-22 -81 -29 -141h455l-49 -215h-420q3 -160 162 -160q68 0 148.5 6.5t126.5 12.5 l46 6l-22 -211q-184 -54 -336 -54q-204 0 -306 101t-102 293v6h-119z" />
<glyph unicode="&#x2122;" horiz-adv-x="1411" d="M438 1157v162h410v-162h-84v-477h-180v477h-146zM899 678v641h211l84 -324l92 324h209v-641h-168v356l-70 -313h-112l-78 313v-356h-168z" />
<glyph unicode="&#x25fc;" horiz-adv-x="1024" d="M0 0v1024h1024v-1024h-1024z" />
</font>
</defs>
</svg>
