<?xml version="1.0" standalone="no"?>
<!DOCTYPE svg PUBLIC "-//W3C//DTD SVG 1.1//EN" "http://www.w3.org/Graphics/SVG/1.1/DTD/svg11.dtd" >
<svg xmlns="http://www.w3.org/2000/svg">
<metadata></metadata>
<defs>
<font id="titillium_bdbold" horiz-adv-x="1146" >
<font-face units-per-em="2048" ascent="1536" descent="-512" />
<missing-glyph horiz-adv-x="450" />
<glyph horiz-adv-x="2048" />
<glyph horiz-adv-x="2048" />
<glyph unicode="&#xd;" horiz-adv-x="2048" />
<glyph unicode=" "  horiz-adv-x="450" />
<glyph unicode="&#x09;" horiz-adv-x="450" />
<glyph unicode="&#xa0;" horiz-adv-x="450" />
<glyph unicode="!" horiz-adv-x="573" d="M139 0v330h295v-330h-295zM139 1393h297l-28 -881h-242z" />
<glyph unicode="&#x22;" horiz-adv-x="841" d="M113 1393h264l-12 -492h-242zM467 1393h264l-14 -492h-242z" />
<glyph unicode="#" d="M33 305v230h196v258h-196v229h196v330h238v-330h213v330h238v-330h196v-229h-196v-258h196v-230h-196v-305h-238v305h-213v-305h-238v305h-196zM467 535h213v258h-213v-258z" />
<glyph unicode="$" d="M106 975q0 203 123 302t338 99h27l37 283h151l-37 -295q62 -6 129 -16.5t104 -17.5l36 -7l-23 -217q-149 16 -276 24l-41 -329q213 -68 289.5 -148.5t76.5 -244.5q0 -108 -35.5 -191.5t-98.5 -136t-147.5 -79t-185.5 -26.5h-2l-30 -241q-152 6 -152 14l29 238 q-67 7 -140.5 20t-113.5 22l-41 9l27 213q162 -23 299 -31l45 356q-212 63 -300 153.5t-88 246.5zM379 993q0 -50 30.5 -80t118.5 -63l35 285q-92 -4 -138 -41.5t-46 -100.5zM602 217q84 9 125 54t41 118q0 49 -27.5 80.5t-99.5 60.5z" />
<glyph unicode="%" d="M29 1079q0 148 62.5 222.5t182.5 74.5t183 -74.5t63 -222.5t-63 -223.5t-183 -75.5q-119 0 -182 75.5t-63 223.5zM229 1079q0 -74 9 -104.5t36 -30.5t36 30.5t9 104.5t-9 103.5t-36 29.5t-36 -29.5t-9 -103.5zM256 -16l481 1448l150 -54l-481 -1444zM627 274 q0 148 62.5 222.5t182.5 74.5t183 -74.5t63 -222.5t-63 -223.5t-183 -75.5q-119 0 -182 75.5t-63 223.5zM827 274q0 -74 9 -104.5t36 -30.5t36.5 30.5t9.5 104.5q0 73 -9.5 103.5t-36.5 30.5t-36 -30t-9 -104z" />
<glyph unicode="&#x26;" horiz-adv-x="1435" d="M72 401q0 166 69 261t221 155q-84 102 -109.5 165t-25.5 167q0 143 114.5 226t305.5 83q201 0 309.5 -85.5t108.5 -246.5q0 -91 -30 -159t-86.5 -123t-164.5 -129l201 -201q12 32 24.5 119.5t14.5 142.5l266 -6q-13 -106 -42.5 -223.5t-61.5 -192.5l229 -200l-155 -179 l-218 179q-71 -79 -182.5 -129t-236.5 -50q-124 0 -218 19t-157 54t-102.5 88.5t-56.5 118t-17 146.5zM350 424q0 -203 238 -203q81 0 158.5 23t109.5 59l-354 354q-152 -74 -152 -233zM506 1087q0 -47 21.5 -87t70.5 -93l35 -37q84 62 118.5 110t34.5 116q0 69 -34.5 99 t-104.5 30q-67 0 -104 -34t-37 -104z" />
<glyph unicode="'" horiz-adv-x="489" d="M115 1393h264l-14 -492h-242z" />
<glyph unicode="(" horiz-adv-x="630" d="M78 616q0 137 24.5 282t59.5 254.5t69.5 199t58.5 136.5l25 48h260q-8 -21 -21 -58t-46.5 -147t-59 -216t-46.5 -245.5t-21 -253.5t20 -246t48.5 -238.5t57 -197t48.5 -140.5l20 -50h-260q-10 16 -26 44.5t-56.5 121t-72 189t-57 238.5t-25.5 279z" />
<glyph unicode=")" horiz-adv-x="630" d="M55 -256q8 19 21 52.5t46.5 135.5t59.5 201.5t47 234t21 248.5t-20 251t-48.5 250.5t-57.5 211t-49 152.5l-20 55h260q10 -18 26 -49.5t57 -132.5t72.5 -203.5t57 -250t25.5 -284.5t-24.5 -277t-59.5 -242.5t-70 -185t-59 -125.5l-25 -42h-260z" />
<glyph unicode="*" horiz-adv-x="870" d="M82 938l215 160l-209 149l94 129l207 -149l80 248l154 -52l-78 -249h252v-152h-252l78 -246l-150 -45l-84 248l-211 -162z" />
<glyph unicode="+" d="M102 391v246h347v344h245v-344h350v-246h-350v-348h-245v348h-347z" />
<glyph unicode="," horiz-adv-x="538" d="M41 -252l102 533h303l-184 -533h-221z" />
<glyph unicode="-" horiz-adv-x="835" d="M115 420v250h606v-250h-606z" />
<glyph unicode="." horiz-adv-x="524" d="M115 0v340h295v-340h-295z" />
<glyph unicode="/" horiz-adv-x="954" d="M63 16l590 1454l242 -86l-590 -1454z" />
<glyph unicode="0" d="M49 668q0 252 62 410.5t176 228t286 69.5q261 0 393 -167.5t132 -540.5q0 -190 -34 -324t-103 -215t-164 -117.5t-224 -36.5t-224 36.5t-163.5 117.5t-102.5 215t-34 324zM340 668q0 -245 55 -346t180 -101t178.5 100.5t53.5 346.5q0 259 -53 360.5t-179 101.5 q-84 0 -134.5 -42t-75.5 -143.5t-25 -276.5z" />
<glyph unicode="1" d="M152 1055l446 297h258v-1352h-283v1032l-292 -188z" />
<glyph unicode="2" d="M133 0v240l289 292q79 81 119 125t81.5 99t57.5 99.5t16 92.5q0 101 -50 139.5t-171 38.5q-62 0 -141.5 -7.5t-128.5 -14.5l-49 -8l-15 219q23 7 62 17t146 27t198 17q228 0 334 -97t106 -290q0 -152 -65 -262.5t-238 -267.5l-235 -213h561v-246h-877z" />
<glyph unicode="3" d="M117 45l14 215q229 -39 385 -39q106 0 158.5 43.5t52.5 136.5q0 75 -54.5 120.5t-142.5 45.5h-272v234h272q68 0 120 57t52 127q0 145 -202 145q-71 0 -160 -9t-142 -18l-53 -9l-18 209q21 8 58 20t140.5 32.5t194.5 20.5q260 0 366.5 -88.5t106.5 -283.5 q0 -198 -157 -304q39 -21 63 -36.5t49.5 -40t38.5 -52t22 -68.5t9 -95q0 -219 -109 -326t-352 -107q-89 0 -199 17.5t-176 35.5z" />
<glyph unicode="4" d="M82 223v215l334 914h311l-362 -883h290v379h283v-379h129v-246h-129v-223h-283v223h-573z" />
<glyph unicode="5" d="M102 51l31 209q248 -39 414 -39q99 0 153 53t54 150q0 102 -45.5 147t-143.5 45q-64 0 -128 -8.5t-96 -17.5l-32 -8l-168 39l37 731h826v-246h-605l-34 -293q126 49 241 49q438 0 438 -407q0 -229 -120.5 -354.5t-341.5 -125.5q-94 0 -214 19t-193 38z" />
<glyph unicode="6" d="M72 670q0 190 38.5 327.5t113.5 219.5t176.5 120.5t234.5 38.5q76 0 177.5 -15t164.5 -29l63 -15l-24 -217q-209 30 -381 30q-135 0 -204 -85t-69 -230l43 12q43 12 108 25.5t108 13.5q232 0 348 -106t116 -332q0 -224 -130.5 -338.5t-364.5 -114.5q-263 0 -390.5 181 t-127.5 514zM360 575q0 -161 54.5 -257.5t175.5 -96.5q98 0 151.5 54.5t53.5 152.5q0 95 -51.5 144t-147.5 49q-49 0 -108 -11.5t-94 -23.5z" />
<glyph unicode="7" d="M141 1100v252h865v-320l-482 -1057l-262 74l461 985v66h-582z" />
<glyph unicode="8" d="M57 344q0 90 21.5 155t54.5 106t94 91q-86 69 -116.5 135.5t-30.5 176.5q0 173 132.5 270.5t356.5 97.5t361 -97.5t137 -272.5q0 -120 -29 -179t-118 -131q91 -75 129 -142.5t38 -186.5q0 -83 -26.5 -150t-73.5 -111.5t-113 -74.5t-141.5 -43t-163.5 -13q-512 0 -512 369 zM360 410q0 -93 52 -137t157 -44q215 0 215 181q0 106 -120 153h-181q-123 -48 -123 -153zM383 963q0 -92 100 -160h181q100 68 100 160q0 77 -49 118t-142 41q-92 0 -141 -41t-49 -118z" />
<glyph unicode="9" d="M57 924q0 212 133 332t363 120q261 0 389.5 -181t128.5 -511q0 -197 -38.5 -336.5t-114 -220t-175.5 -116.5t-235 -36q-76 0 -177.5 15t-164.5 30l-64 15l25 217q209 -31 381 -31q137 0 204.5 86.5t67.5 245.5l-42 -15q-43 -14 -108 -30t-108 -16q-224 0 -344.5 108 t-120.5 324zM348 924q0 -92 52 -139.5t147 -47.5q49 0 108 11.5t93 23.5l34 12q0 75 -12 135t-37.5 108.5t-71.5 75.5t-108 27q-98 0 -151.5 -54t-53.5 -152z" />
<glyph unicode=":" horiz-adv-x="524" d="M115 0v340h295v-340h-295zM115 592v340h295v-340h-295z" />
<glyph unicode=";" horiz-adv-x="571" d="M55 -252h221l185 533h-303zM141 592v340h295v-340h-295z" />
<glyph unicode="&#x3c;" d="M135 401v226l832 374v-278l-535 -203l535 -221v-279z" />
<glyph unicode="=" d="M119 178v248h909v-248h-909zM119 604v248h909v-248h-909z" />
<glyph unicode="&#x3e;" d="M180 20v279l535 221l-535 203v278l832 -374v-226z" />
<glyph unicode="?" horiz-adv-x="894" d="M61 1346q20 8 54 20t126.5 31.5t168.5 19.5q221 0 320 -79.5t99 -256.5q0 -143 -32 -215.5t-135 -150.5q-70 -53 -104.5 -91t-42 -60.5t-7.5 -55.5v-64h-219q-3 3 -7 8.5t-15 23.5t-19.5 38.5t-15.5 52t-7 64.5q0 40 33 83t115 109q112 89 142 129.5t30 98.5t-39 89 t-135 31q-61 0 -134.5 -8t-116.5 -16l-44 -8zM244 0v330h295v-330h-295z" />
<glyph unicode="@" horiz-adv-x="1992" d="M78 535q0 239 69 423.5t195.5 300.5t300 175t387.5 59q449 0 676 -222t227 -646v-17q0 -315 -99.5 -461.5t-295.5 -146.5q-60 0 -110 12t-78.5 28.5t-48.5 33.5t-27 29l-8 12q-7 -5 -18.5 -12.5t-47.5 -27.5t-70.5 -35t-81 -27.5t-85.5 -12.5q-193 0 -288 120t-95 394 q0 260 88.5 385t302.5 125q34 0 80.5 -13t76.5 -25l29 -13v26h275v-366q0 -75 0.5 -124.5t2.5 -95.5t5 -72t9 -49.5t12.5 -33.5t18 -18t23.5 -9.5t31 -1.5q43 0 69 30.5t41 115t15 233.5v19q0 327 -151 475.5t-478 148.5q-330 0 -504 -188t-174 -528q0 -189 36 -322.5 t117 -223.5t210 -132.5t315 -42.5q45 0 118.5 4.5t123.5 9.5l51 4l10 -240q-184 -20 -303 -20q-188 0 -332.5 29t-263.5 97.5t-196 178.5t-118.5 274.5t-41.5 383.5zM858 514q0 -138 31 -205t96 -67q80 0 184 51q-12 73 -12 217v252q-86 20 -125 20q-105 0 -139.5 -59.5 t-34.5 -208.5z" />
<glyph unicode="A" horiz-adv-x="1232" d="M35 0l313 1393h537l313 -1393h-283l-55 252h-487l-56 -252h-282zM426 498h381l-141 661h-99z" />
<glyph unicode="B" horiz-adv-x="1247" d="M152 0v1393h546q217 0 326 -87.5t109 -281.5q0 -117 -35 -185.5t-119 -121.5q92 -40 136 -113.5t44 -204.5q0 -203 -118 -301t-334 -98h-555zM434 242h258q93 0 136.5 37t43.5 135q0 168 -180 168h-258v-340zM434 819h252q82 0 121 42t39 126q0 85 -40.5 124.5 t-121.5 39.5h-250v-332z" />
<glyph unicode="C" horiz-adv-x="1112" d="M96 696q0 204 25 336.5t86.5 221t163 126t258.5 37.5q171 0 407 -55l-8 -225q-201 30 -358 30q-85 0 -135.5 -17.5t-86 -70t-48.5 -143t-13 -240.5q0 -84 3.5 -144.5t11.5 -112.5t23.5 -86t36.5 -60.5t52.5 -40.5t71 -20.5t92.5 -6.5q152 0 350 29l6 -231 q-83 -18 -200.5 -33t-204.5 -15q-107 0 -188.5 19t-140.5 60t-98.5 98t-63 141t-33 180t-9.5 223z" />
<glyph unicode="D" horiz-adv-x="1306" d="M152 0v1393h469q104 0 185.5 -13t143.5 -38.5t107 -67t75 -93t47.5 -123.5t25 -152t7.5 -183q0 -108 -6.5 -190.5t-23 -160.5t-45.5 -133.5t-73.5 -103t-106.5 -76t-145.5 -44t-190.5 -15.5h-469zM434 246h187q58 0 103 11t76.5 29t54 51t35.5 68t20 89t9.5 105t2.5 124 q0 72 -2.5 120t-9.5 97t-20.5 78.5t-35 57t-54 41.5t-76.5 22t-103 8h-187v-901z" />
<glyph unicode="E" horiz-adv-x="1134" d="M152 0v1393h901v-246h-619v-326h496v-241h-496v-334h619v-246h-901z" />
<glyph unicode="F" horiz-adv-x="1087" d="M152 0v1393h888v-246h-606v-410h496v-245h-496v-492h-282z" />
<glyph unicode="G" horiz-adv-x="1251" d="M92 696q0 386 127 553.5t432 167.5q96 0 217.5 -14.5t195.5 -28.5l73 -14l-9 -219q-246 26 -432 26q-95 0 -151.5 -18t-95 -71t-52.5 -143t-14 -239q0 -117 7.5 -192.5t26.5 -134t54.5 -89t87 -45t129.5 -14.5q37 0 79.5 2t66.5 4l24 2v271h-127v245h406v-722 q-293 -48 -475 -48q-135 0 -234 31t-163.5 87.5t-103 147.5t-54 200t-15.5 255z" />
<glyph unicode="H" horiz-adv-x="1386" d="M152 0v1393h282v-570h518v570h283v-1393h-283v578h-518v-578h-282z" />
<glyph unicode="I" horiz-adv-x="585" d="M152 0v1393h282v-1393h-282z" />
<glyph unicode="J" horiz-adv-x="618" d="M39 102q81 0 118.5 31t37.5 115v1145h280l2 -1157q0 -115 -24.5 -189t-80.5 -116t-134 -58t-199 -16v245z" />
<glyph unicode="K" horiz-adv-x="1214" d="M152 0v1393h282v-613l189 21l229 592h322l-304 -699l312 -694h-326l-233 555l-189 -20v-535h-282z" />
<glyph unicode="L" horiz-adv-x="966" d="M152 0v1393h282v-1143h510v-250h-792z" />
<glyph unicode="M" horiz-adv-x="1757" d="M152 0v1393h481l246 -1016l245 1016h482v-1393h-283v1077h-31l-272 -1016h-283l-272 1016h-31v-1077h-282z" />
<glyph unicode="N" horiz-adv-x="1419" d="M152 0v1393h477l336 -1147h20v1147h283v-1393h-465l-348 1147h-21v-1147h-282z" />
<glyph unicode="O" horiz-adv-x="1335" d="M90 688q0 183 29 314t95.5 226.5t179 142t274.5 46.5t274.5 -46.5t178.5 -142t95 -226.5t29 -314q0 -145 -18 -255.5t-59 -198.5t-107.5 -144t-164 -85.5t-228.5 -29.5t-228.5 29.5t-164 85.5t-108 144t-59.5 198.5t-18 255.5zM381 688q0 -252 60.5 -359.5t226.5 -107.5 q85 0 141 26.5t88 87t44.5 144t12.5 209.5q0 101 -8 174.5t-27 134t-51.5 97.5t-82 57t-117.5 20q-165 0 -226 -114t-61 -369z" />
<glyph unicode="P" horiz-adv-x="1206" d="M152 0v1393h512q495 0 495 -484q0 -245 -125.5 -374t-369.5 -129h-230v-406h-282zM434 647h228q210 0 210 262q0 128 -51 185t-159 57h-228v-504z" />
<glyph unicode="Q" horiz-adv-x="1335" d="M90 688q0 183 29 314t95.5 226.5t179 142t274.5 46.5t274.5 -46.5t178.5 -142t95 -226.5t29 -314q0 -232 -50.5 -380.5t-164.5 -231.5l170 -275l-258 -120l-184 301q-24 -7 -90 -7q-163 0 -275 43.5t-178.5 135.5t-95.5 221t-29 313zM381 688q0 -128 12.5 -211.5 t45 -143.5t88 -86t141.5 -26q69 0 118 18t81.5 52t51.5 92t27 130.5t8 174.5q0 101 -8 174.5t-27 134t-51.5 97.5t-82 57t-117.5 20q-165 0 -226 -114t-61 -369z" />
<glyph unicode="R" horiz-adv-x="1269" d="M152 0v1393h540q492 0 492 -459q0 -273 -205 -402l199 -532h-310l-161 467h-273v-467h-282zM434 709h262q101 0 150 61t49 160q0 102 -52 161.5t-151 59.5h-258v-442z" />
<glyph unicode="S" horiz-adv-x="1114" d="M76 1004q0 209 126.5 311t348.5 102q83 0 197.5 -13.5t187.5 -27.5l74 -14l-23 -223q-288 32 -407 32q-112 0 -168 -38.5t-56 -108.5q0 -65 55 -100.5t234 -92.5q156 -50 237.5 -99.5t118.5 -122t37 -189.5q0 -147 -64 -249t-170.5 -149t-246.5 -47q-84 0 -200.5 16 t-190.5 32l-74 16l29 219q275 -37 420 -37q110 0 163.5 47.5t53.5 132.5q0 65 -50.5 103t-199.5 80q-237 68 -334.5 161t-97.5 259z" />
<glyph unicode="T" horiz-adv-x="1077" d="M27 1143v250h1024v-250h-369v-1143h-283v1143h-372z" />
<glyph unicode="U" horiz-adv-x="1339" d="M139 471v922h283v-928q0 -124 61.5 -184t186.5 -60q248 0 248 244v928h282v-922q0 -257 -132 -376.5t-398 -119.5t-398.5 119.5t-132.5 376.5z" />
<glyph unicode="V" horiz-adv-x="1234" d="M33 1393h297l241 -1147h93l241 1147h297l-323 -1393h-523z" />
<glyph unicode="W" horiz-adv-x="1904" d="M39 1393h297l172 -1151h31l249 1151h328l250 -1151h31l172 1151h297l-267 -1393h-428l-219 1059l-219 -1059h-428z" />
<glyph unicode="X" horiz-adv-x="1165" d="M18 0l402 668l-402 725h314l258 -512l264 512h293l-402 -711l402 -682h-313l-259 481l-264 -481h-293z" />
<glyph unicode="Y" horiz-adv-x="1140" d="M0 1393h313l256 -555l256 555h314l-426 -830v-563h-283v563z" />
<glyph unicode="Z" horiz-adv-x="1089" d="M84 0v244l582 866v37h-582v246h922v-246l-582 -864v-37h582v-246h-922z" />
<glyph unicode="[" horiz-adv-x="727" d="M139 -252v1786h516v-246h-235v-1294h235v-246h-516z" />
<glyph unicode="\" horiz-adv-x="1019" d="M66 1360l233 106l655 -1439l-237 -101z" />
<glyph unicode="]" horiz-adv-x="727" d="M72 -6h235v1294h-235v246h516v-1786h-516v246z" />
<glyph unicode="^" d="M43 641l397 711h234l397 -711h-287l-223 444l-231 -444h-287z" />
<glyph unicode="_" horiz-adv-x="1269" d="M197 -150h876v-233h-876v233z" />
<glyph unicode="`" horiz-adv-x="548" d="M-35 1307l82 235l516 -209l-61 -178z" />
<glyph unicode="a" horiz-adv-x="1046" d="M59 311q0 85 23.5 144t72.5 94t111.5 52.5t151.5 23.5l219 16v64q0 63 -28 86.5t-93 23.5q-60 0 -156 -4t-162 -8l-67 -4l-8 190q25 7 66.5 17t151.5 26.5t198 16.5q198 0 285 -81.5t87 -262.5v-426q3 -49 16 -69.5t52 -27.5l-8 -207q-105 0 -167.5 15t-125.5 57 q-16 -8 -45 -20t-108.5 -32t-147.5 -20q-159 0 -238.5 85.5t-79.5 250.5zM336 319q0 -120 100 -120q39 0 89.5 8t80.5 16l31 8v220l-186 -17q-115 -10 -115 -115z" />
<glyph unicode="b" horiz-adv-x="1114" d="M127 4v1430h274v-441q132 56 222 56q144 0 232.5 -48.5t134.5 -164t46 -310.5q0 -165 -28 -271.5t-93 -169t-156.5 -86.5t-232.5 -24q-44 0 -143.5 7.5t-177.5 14.5zM401 229q94 -8 125 -8q137 0 184.5 67t47.5 238q0 149 -44 213t-128 64q-36 0 -82.5 -6.5t-74.5 -13.5 l-28 -7v-547z" />
<glyph unicode="c" horiz-adv-x="913" d="M78 522q0 273 102.5 400t329.5 127q53 0 135 -11.5t137 -22.5l56 -11l-9 -218q-161 17 -239 17q-74 0 -119.5 -14.5t-71 -50t-34.5 -85t-9 -131.5q0 -91 9 -144.5t35.5 -91t71.5 -51.5t120 -14q35 0 94 4.5t101 8.5l42 4l9 -220q-219 -43 -334 -43q-228 0 -327 128.5 t-99 418.5z" />
<glyph unicode="d" horiz-adv-x="1124" d="M78 516q0 277 105.5 405t318.5 128q34 0 89 -7.5t93 -14.5l39 -7v414h274v-1434h-272v43q-16 -8 -43 -19t-93 -30t-112 -19q-115 0 -192.5 33t-123 103.5t-64.5 167.5t-19 237zM356 516q0 -160 36.5 -227.5t131.5 -67.5q43 0 92.5 7.5t77.5 15.5l29 8v539 q-113 20 -201 20q-166 0 -166 -295z" />
<glyph unicode="e" horiz-adv-x="1044" d="M76 498q0 274 114 412.5t338 138.5q447 0 447 -463l-21 -191h-602q2 -93 50 -135.5t157 -42.5q75 0 169.5 4.5t151.5 9.5l58 5l4 -203q-236 -58 -426 -58q-232 0 -336 123.5t-104 399.5zM350 604h355q0 123 -39.5 171t-137.5 48q-97 0 -136.5 -50t-41.5 -169z" />
<glyph unicode="f" horiz-adv-x="731" d="M66 791v233h110v45q0 220 65.5 304.5t233.5 84.5q30 0 88.5 -6.5t102.5 -13.5l43 -6l-4 -224q-90 4 -156 4q-57 0 -77.5 -32.5t-20.5 -112.5v-43h247v-233h-247v-791h-275v791h-110z" />
<glyph unicode="g" horiz-adv-x="1093" d="M76 -186q0 69 34.5 125.5t112.5 117.5q-34 23 -55 66t-21 90q0 23 20 64t40 71l20 29q-41 29 -69 62t-49 96t-21 147q0 96 33 167.5t92.5 113t135.5 61.5t169 20q40 0 91.5 -6.5t83.5 -13.5l32 -6l330 10v-219l-154 12q45 -73 45 -139q0 -106 -27 -177t-84.5 -111 t-133.5 -56t-187 -16q-48 0 -84 8q-20 -53 -20 -80q0 -28 13.5 -41t54.5 -19.5t130 -7.5q176 -1 272 -31.5t135.5 -95t39.5 -182.5q0 -73 -25.5 -131.5t-69.5 -98t-106 -65.5t-133 -37.5t-152 -11.5q-94 0 -166.5 7.5t-135.5 27t-104 51t-64 82t-23 117.5zM346 -158 q0 -88 225 -88q207 0 207 103q0 56 -36.5 71t-155.5 17q-25 0 -71.5 3.5t-80.5 7.5l-33 3q-55 -55 -55 -117zM362 682q0 -152 158 -152q156 0 156 152q0 74 -37.5 111.5t-118.5 37.5q-158 0 -158 -149z" />
<glyph unicode="h" horiz-adv-x="1132" d="M127 0v1434h274v-459q16 8 42.5 20.5t94 33t117.5 20.5q85 0 147.5 -22t103.5 -61.5t65.5 -102t34.5 -136.5t10 -172v-555h-275v549q0 51 -3 86.5t-12.5 69t-26 54t-44.5 32.5t-67 12q-40 0 -86.5 -8.5t-73.5 -16.5l-27 -8v-770h-274z" />
<glyph unicode="i" horiz-adv-x="528" d="M127 0v1024h274v-1024h-274zM127 1155v279h274v-279h-274z" />
<glyph unicode="j" horiz-adv-x="530" d="M-70 -268q57 37 86 59.5t55.5 49t36.5 54.5t15.5 63.5t5.5 90.5v975h274v-977q0 -88 -11 -150.5t-34 -113t-68.5 -93t-102.5 -79.5t-148 -82zM129 1155v279h274v-279h-274z" />
<glyph unicode="k" horiz-adv-x="1054" d="M127 0v1434h274v-816l105 19l203 387h307l-266 -485l280 -539h-309l-207 399l-113 -18v-381h-274z" />
<glyph unicode="l" horiz-adv-x="552" d="M139 0v1434h275v-1434h-275z" />
<glyph unicode="m" horiz-adv-x="1718" d="M127 0v1024h272v-57q16 9 42.5 22.5t91 36.5t108.5 23q166 0 256 -97q21 11 56.5 27t127 43t160.5 27q104 0 174 -30t111 -94t58.5 -153t17.5 -217v-555h-275v547q0 51 -3 87t-12 70t-24.5 54.5t-41.5 32.5t-62 12t-84 -9.5t-78 -19.5l-29 -10q8 -154 8 -234v-530h-274 v526q0 152 -27 214.5t-116 62.5q-40 0 -86 -9.5t-72 -18.5l-25 -9v-766h-274z" />
<glyph unicode="n" horiz-adv-x="1132" d="M127 0v1024h272v-57q16 9 42 22.5t94 36.5t120 23q85 0 147.5 -22t103.5 -61.5t65.5 -102t34.5 -136.5t10 -172v-555h-275v547q0 51 -3 87t-12.5 70t-26 54.5t-44.5 32.5t-67 12q-43 0 -89.5 -9.5t-72.5 -18.5l-25 -9v-766h-274z" />
<glyph unicode="o" horiz-adv-x="1089" d="M74 514q0 123 24 217.5t77.5 167.5t146.5 111.5t223 38.5t223 -38.5t146.5 -111.5t77.5 -167.5t24 -217.5t-24 -218t-77.5 -169t-146.5 -113t-223 -39t-223 39t-146.5 113t-77.5 169t-24 218zM352 514q0 -158 42 -231.5t151 -73.5t150.5 73.5t41.5 231.5q0 157 -41.5 229 t-150.5 72t-151 -72t-42 -229z" />
<glyph unicode="p" horiz-adv-x="1114" d="M127 -430v1454h272v-55q15 9 40 22.5t87.5 35.5t106.5 22q206 0 304.5 -124t98.5 -405q0 -162 -27.5 -269t-88.5 -167.5t-143.5 -84.5t-205.5 -24q-34 0 -76.5 4.5t-68.5 8.5l-25 4v-422h-274zM401 225q93 -12 150 -12q120 0 163.5 69.5t43.5 237.5q0 283 -178 283 q-37 0 -82 -10.5t-71 -20.5l-26 -10v-537z" />
<glyph unicode="q" horiz-adv-x="1112" d="M78 498q0 165 28 271.5t92 169t155.5 86.5t232.5 24q53 0 152.5 -6.5t173.5 -13.5l73 -7v-1452h-274v461q-132 -56 -222 -56q-144 0 -232 48.5t-133.5 164t-45.5 310.5zM352 498q0 -148 45 -212.5t129 -64.5q36 0 82.5 6.5t74.5 13.5l28 7v555q-76 8 -125 8 q-137 0 -185.5 -70.5t-48.5 -242.5z" />
<glyph unicode="r" horiz-adv-x="761" d="M127 0v1024h272v-109q19 12 52 29.5t120 54t156 50.5v-277q-80 -16 -161.5 -37.5t-123.5 -34.5l-41 -14v-686h-274z" />
<glyph unicode="s" horiz-adv-x="966" d="M74 713q0 87 31 152.5t86 104.5t125 58t153 19q65 0 164.5 -13t166.5 -26l66 -13l-4 -227q-254 33 -373 33q-85 0 -114 -19t-29 -63q0 -34 40 -49.5t187 -42.5q182 -33 252 -100t70 -220q0 -174 -106 -253t-306 -79q-68 0 -166 12.5t-163 24.5l-64 13l8 229 q255 -33 359 -33q94 0 130 19t36 61q0 25 -13.5 39t-59 28t-138.5 29q-91 15 -147.5 33.5t-103 53.5t-67 90.5t-20.5 138.5z" />
<glyph unicode="t" horiz-adv-x="745" d="M47 791v233h121v285h274v-285h252v-233h-252v-420q0 -32 0.5 -47t3 -36.5t7.5 -30.5t14.5 -19t24.5 -13.5t36 -3.5l156 4l12 -219q-137 -31 -209 -31q-185 0 -252 83.5t-67 306.5v426h-121z" />
<glyph unicode="u" horiz-adv-x="1132" d="M117 487v537h274v-541q0 -52 1.5 -83.5t6 -65t14 -51.5t25.5 -34t39.5 -22t57.5 -6q45 0 94 9.5t75 18.5l27 9v766h275v-1024h-273v57q-16 -9 -43.5 -22.5t-96 -36.5t-116.5 -23q-111 0 -182 30t-110 97.5t-53.5 157t-14.5 227.5z" />
<glyph unicode="v" horiz-adv-x="1019" d="M31 1024h286l164 -791h58l172 791h278l-246 -1024h-467z" />
<glyph unicode="w" horiz-adv-x="1581" d="M49 1024h270l125 -791h50l155 771h283l155 -771h50l125 791h270l-195 -1024h-430l-116 627l-117 -627h-430z" />
<glyph unicode="x" horiz-adv-x="970" d="M29 0l280 514l-280 510h293l163 -317l166 317h293l-291 -502l291 -522h-293l-166 313l-163 -313h-293z" />
<glyph unicode="y" horiz-adv-x="1024" d="M33 1024h270l186 -791h48l186 791h270l-360 -1454h-268l112 430h-192z" />
<glyph unicode="z" horiz-adv-x="929" d="M84 0v246l430 532h-430v246h760v-246l-430 -532h430v-246h-760z" />
<glyph unicode="{" horiz-adv-x="739" d="M33 535v213q118 28 173.5 74.5t55.5 117.5q0 26 -7 123t-7 137q0 195 93.5 273t324.5 86v-234q-88 -7 -120 -42.5t-32 -102.5q0 -35 7 -134.5t7 -127.5q0 -67 -7.5 -106.5t-32 -73.5t-69 -55t-120.5 -40q75 -18 121 -42t70 -61t32 -79t8 -109q0 -28 -7 -116t-7 -123 q0 -70 29.5 -108.5t116.5 -45.5v-233q-226 7 -320 87.5t-94 264.5q0 44 7 135t7 113q0 149 -229 209z" />
<glyph unicode="|" horiz-adv-x="548" d="M137 -430v1864h275v-1864h-275z" />
<glyph unicode="}" horiz-adv-x="739" d="M74 1325v234q231 -8 324.5 -86t93.5 -273q0 -40 -7.5 -137t-7.5 -123q0 -71 56 -117.5t174 -74.5v-213q-115 -30 -172.5 -83.5t-57.5 -125.5q0 -22 7.5 -113t7.5 -135q0 -184 -94 -264.5t-320 -87.5v233q86 7 115.5 45.5t29.5 108.5q0 35 -7 123t-7 116q0 67 8 109t32 79 t70 61t121 42q-76 19 -120.5 40t-69 55t-32 73.5t-7.5 106.5q0 28 7 127.5t7 134.5q0 67 -31.5 102.5t-119.5 42.5z" />
<glyph unicode="~" d="M125 578q14 12 39 29.5t91.5 47t121.5 29.5q57 0 213 -45t203 -45q36 0 88 19.5t86 38.5l34 20l17 -219q-4 -4 -12.5 -11t-33.5 -25.5t-51 -32t-63.5 -25t-71.5 -11.5q-60 0 -221 45t-196 45q-44 0 -100 -20t-90 -40l-34 -20z" />
<glyph unicode="&#xa1;" horiz-adv-x="540" d="M121 -369l29 881h241l27 -881h-297zM123 694v330h295v-330h-295z" />
<glyph unicode="&#xa2;" d="M180 512q0 216 97.5 326.5t275.5 124.5v206h225v-215q37 -4 77.5 -10.5t62.5 -11.5l22 -4l-8 -205q-162 6 -240 6q-129 0 -181 -50t-52 -167q0 -118 52.5 -168.5t182.5 -50.5l238 8l8 -205q-80 -20 -162 -26v-224h-225v213q-373 26 -373 453z" />
<glyph unicode="&#xa3;" d="M154 0v233h151v420h-131v234h131v121q0 110 21.5 183t67.5 112.5t105 55t146 15.5q68 0 146.5 -12t122.5 -24l44 -13l-8 -213q-139 16 -268 16q-56 0 -81.5 -32t-25.5 -101v-108h314v-234h-314v-420h254l142 33l43 -229l-166 -37h-694z" />
<glyph unicode="&#xa4;" d="M61 193l148 147q-39 83 -39 176q0 91 39 174l-148 150l189 188l147 -149q80 41 176 41q95 0 175 -41l149 149l188 -188l-149 -150q41 -80 41 -174q0 -96 -41 -176l149 -147l-188 -189l-149 150q-80 -41 -175 -41q-94 0 -174 41l-149 -150zM397 516q0 -72 52 -124t124 -52 t124.5 52t52.5 124t-52.5 124t-124.5 52t-124 -52t-52 -124z" />
<glyph unicode="&#xa5;" d="M10 1352h314l251 -432l250 432h314l-293 -527h182v-229h-309v-92h309v-230h-309v-274h-283v274h-317v230h317v92h-317v229h188z" />
<glyph unicode="&#xa6;" horiz-adv-x="557" d="M141 348h275v-778h-275v778zM141 672v762h275v-762h-275z" />
<glyph unicode="&#xa7;" horiz-adv-x="1058" d="M76 436q0 71 40.5 153t90.5 122q-47 34 -68.5 84t-21.5 137q0 375 444 375q64 0 154.5 -12.5t148.5 -24.5l58 -13l-13 -221q-231 33 -329 33q-118 0 -157.5 -28.5t-39.5 -104.5q0 -44 55.5 -68t223.5 -65q95 -23 149.5 -44t93.5 -56t53.5 -84t14.5 -125q0 -66 -29 -143 t-74 -142q41 -38 59.5 -83.5t18.5 -139.5q0 -199 -105.5 -287t-338.5 -88q-64 0 -159 11.5t-159 23.5l-63 12l27 221q220 -31 333 -31q106 0 154.5 27.5t48.5 89.5q0 56 -52 80.5t-239 71.5q-91 23 -146.5 46t-97 59.5t-58.5 87.5t-17 126zM352 487q0 -60 23.5 -82t99.5 -43 q71 -19 182 -57q15 20 26 66t11 84q0 51 -33 77t-133 52q-16 4 -67.5 15.5t-73.5 18.5q-13 -20 -24 -60t-11 -71z" />
<glyph unicode="&#xa8;" horiz-adv-x="548" d="M-61 1221v270h262v-270h-262zM381 1221v270h262v-270h-262z" />
<glyph unicode="&#xa9;" horiz-adv-x="1316" d="M94 889q0 252 159.5 416.5t405.5 164.5q167 0 297.5 -80t198.5 -211.5t68 -289.5q0 -252 -156 -417t-412 -165q-158 0 -287 76.5t-201.5 210t-72.5 295.5zM221 889q0 -190 124.5 -324.5t309.5 -134.5q125 0 227 62t158 167t56 230q0 124 -57 229t-158.5 167.5 t-223.5 62.5q-185 0 -310.5 -134.5t-125.5 -324.5zM414 899q0 183 62.5 254.5t207.5 71.5q44 0 85 -7.5t60 -15.5l19 -8l-14 -176q-72 12 -138 12q-40 0 -55.5 -28t-15.5 -103q0 -82 16.5 -118t54.5 -36q29 0 63.5 2.5t54.5 5.5l20 3l14 -168q-6 -4 -19 -10t-57.5 -16.5 t-95.5 -10.5q-95 0 -149.5 28.5t-83.5 105t-29 214.5z" />
<glyph unicode="&#xaa;" horiz-adv-x="851" d="M86 868q0 100 64 150.5t196 56.5l137 6v45q0 31 -90 31q-40 0 -107 -3.5t-114 -7.5l-47 -3l-6 153q16 6 44 15t104.5 24t140.5 15q158 0 234.5 -50t76.5 -186v-289q16 -12 37 -16l-4 -168q-97 0 -151.5 9t-73 21.5t-35.5 37.5q-10 -7 -27 -18t-65 -29.5t-91 -18.5 q-108 0 -165.5 60t-57.5 165zM322 877q0 -29 15 -41.5t48 -12.5q18 0 42.5 8.5t40.5 16.5l15 8v82l-96 -6q-33 -3 -49 -15.5t-16 -39.5z" />
<glyph unicode="&#xab;" horiz-adv-x="1230" d="M82 397v197l457 336v-277l-224 -153l224 -176v-277zM662 397v197l456 336v-277l-223 -153l223 -176v-277z" />
<glyph unicode="&#xac;" d="M117 487v246h893v-520h-246v274h-647z" />
<glyph unicode="&#xad;" horiz-adv-x="835" d="M115 420v250h606v-250h-606z" />
<glyph unicode="&#xae;" horiz-adv-x="1316" d="M94 889q0 252 159.5 416.5t403.5 164.5q168 0 299 -80t199 -211.5t68 -289.5q0 -165 -68.5 -297t-198.5 -208.5t-299 -76.5q-159 0 -288.5 76.5t-202 210t-72.5 295.5zM221 889q0 -123 57.5 -228.5t158 -168t220.5 -62.5q188 0 313.5 134t125.5 325q0 124 -57 229 t-158.5 167.5t-223.5 62.5q-184 0 -310 -135t-126 -324zM412 565v645h278q107 0 170.5 -52t63.5 -163q0 -79 -17 -123t-61 -81l84 -226h-205l-57 191h-60v-191h-196zM606 901h58q33 0 51 22t18 58q0 82 -71 82h-56v-162z" />
<glyph unicode="&#xaf;" horiz-adv-x="548" d="M-10 1223v204h588v-204h-588z" />
<glyph unicode="&#xb0;" d="M266 1110q0 136 85 221.5t222 85.5t222.5 -85.5t85.5 -221.5t-85.5 -220.5t-222.5 -84.5t-222 84.5t-85 220.5zM420 1110q0 -69 42 -112.5t111 -43.5t113.5 43.5t44.5 112.5t-44.5 113.5t-113.5 44.5q-68 0 -110.5 -44t-42.5 -114z" />
<glyph unicode="&#xb1;" d="M102 39v246h942v-246h-942zM102 553v246h347v221h245v-221h350v-246h-350v-205h-245v205h-347z" />
<glyph unicode="&#xb2;" horiz-adv-x="573" d="M43 979v184l150 121q52 41 73 67.5t21 49.5q0 18 -18 24.5t-58 6.5q-20 0 -59 -3t-68 -7l-29 -3l-8 203q150 18 242 18q126 0 176.5 -47t50.5 -157q0 -68 -26.5 -114t-88.5 -91l-77 -57h192v-195h-473z" />
<glyph unicode="&#xb3;" horiz-adv-x="573" d="M41 973l12 190q125 -12 193 -12q33 0 46 7t13 26q0 18 -11.5 23t-41.5 5h-135v174h131q41 0 41 29q0 31 -56 31q-34 0 -77 -2.5t-69 -5.5l-26 -2l-12 186q139 18 221 18q248 0 248 -182q0 -108 -59 -143q71 -30 71 -150q0 -104 -63 -156.5t-178 -52.5q-44 0 -106 4 t-102 8z" />
<glyph unicode="&#xb4;" horiz-adv-x="548" d="M10 1333l516 209l82 -235l-536 -152z" />
<glyph unicode="&#xb5;" d="M129 -430v1454h274v-592q1 -59 6 -95t20.5 -64t43.5 -40t74 -12q45 0 94 9.5t75 18.5l27 9v766h275v-1024h-273v57q-16 -9 -43.5 -22.5t-96 -36.5t-116.5 -23q-39 0 -86 7v-412h-274z" />
<glyph unicode="&#xb6;" horiz-adv-x="1226" d="M57 987q0 178 106.5 292t278.5 114h678v-234h-73v-1159h-234v1159h-127v-1159h-233v586h-15q-172 0 -276.5 111.5t-104.5 289.5z" />
<glyph unicode="&#xb7;" horiz-adv-x="524" d="M115 342v340h295v-340h-295z" />
<glyph unicode="&#xb8;" horiz-adv-x="540" d="M61 -471l9 160q63 -2 98 -2q78 0 78 53q0 26 -18 35.5t-60 9.5h-49v217h108v-78q65 -1 107.5 -8t77.5 -26.5t51 -56t16 -93.5q0 -117 -60 -175.5t-167 -58.5q-39 0 -87 6t-76 12z" />
<glyph unicode="&#xb9;" horiz-adv-x="573" d="M20 1464l218 154h196v-639h-217v399l-96 -65z" />
<glyph unicode="&#xba;" horiz-adv-x="860" d="M82 1001q0 179 88 264t262 85q173 0 259.5 -85t86.5 -264q0 -358 -346 -358q-350 0 -350 358zM328 999q0 -74 22.5 -107.5t81.5 -33.5q58 0 78 32.5t20 108.5q0 75 -19.5 106.5t-78.5 31.5t-81.5 -32t-22.5 -106z" />
<glyph unicode="&#xbb;" horiz-adv-x="1234" d="M113 47v277l223 176l-223 153v277l456 -336v-197zM692 47v277l223 176l-223 153v277l457 -336v-197z" />
<glyph unicode="&#xbc;" horiz-adv-x="1122" d="M37 1464l217 154h197v-639h-218v399l-96 -65zM59 59l805 1295l109 -72l-805 -1296zM567 47l80 387h242l-107 -373h56l28 185h187v-185h22v-194h-22v-72h-215v72h-271v180z" />
<glyph unicode="&#xbd;" horiz-adv-x="1110" d="M37 1464l217 154h197v-639h-218v399l-96 -65zM59 59l805 1295l109 -72l-805 -1296zM575 -20l150 120q52 41 73 67.5t21 49.5q0 18 -18 24.5t-58 6.5q-20 0 -58.5 -3t-67.5 -6l-29 -3l-8 202q149 19 241 19q126 0 177 -47.5t51 -157.5q0 -68 -26.5 -114t-88.5 -91l-78 -57 h193v-195h-474v185z" />
<glyph unicode="&#xbe;" horiz-adv-x="1148" d="M74 973l12 190q125 -12 193 -12q33 0 46 7t13 26q0 18 -11.5 23t-41.5 5h-135v174h131q41 0 41 29q0 31 -56 31q-34 0 -77 -2.5t-69 -5.5l-26 -2l-12 186q139 18 221 18q248 0 248 -182q0 -108 -59 -143q71 -30 71 -150q0 -104 -63 -156.5t-178 -52.5q-44 0 -106 4 t-102 8zM88 59l805 1295l108 -72l-804 -1296zM596 47l80 387h242l-107 -373h55l29 185h186v-185h23v-194h-23v-72h-215v72h-270v180z" />
<glyph unicode="&#xbf;" horiz-adv-x="886" d="M59 -57q0 143 32 215.5t136 150.5q70 53 104.5 91t42 60.5t7.5 55.5v64h219q3 -3 7 -8.5t15 -23.5t19.5 -38.5t15.5 -52t7 -64.5q0 -40 -33 -83t-115 -109q-112 -89 -142 -129.5t-30 -98.5t39 -89t135 -31q61 0 134.5 8t117.5 16l43 8l14 -207q-20 -8 -54 -20t-126 -31.5 t-168 -19.5q-221 0 -320.5 79.5t-99.5 256.5zM350 694v330h295v-330h-295z" />
<glyph unicode="&#xc0;" horiz-adv-x="1232" d="M35 0l313 1393h537l313 -1393h-283l-55 252h-487l-56 -252h-282zM291 1690l84 245l516 -217l-68 -190zM426 498h381l-141 661h-99z" />
<glyph unicode="&#xc1;" horiz-adv-x="1232" d="M35 0l313 1393h537l313 -1393h-283l-55 252h-487l-56 -252h-282zM332 1718l516 217l84 -245l-533 -162zM426 498h381l-141 661h-99z" />
<glyph unicode="&#xc2;" horiz-adv-x="1232" d="M35 0l313 1393h537l313 -1393h-283l-55 252h-487l-56 -252h-282zM219 1567l275 305h239l275 -305h-291l-101 114l-106 -114h-291zM426 498h381l-141 661h-99z" />
<glyph unicode="&#xc3;" horiz-adv-x="1232" d="M35 0l313 1393h537l313 -1393h-283l-55 252h-487l-56 -252h-282zM207 1757q4 5 12.5 14t33 31.5t49.5 40t59 31.5t65 14q54 0 127 -23.5t133 -47t82 -23.5q24 0 66 21.5t72 42.5l30 22l59 -199q-4 -5 -12 -14t-33 -31t-49.5 -39t-59 -31t-65.5 -14q-58 0 -187.5 47.5 t-158.5 47.5q-25 0 -66 -21.5t-70 -43.5l-28 -21zM426 498h381l-141 661h-99z" />
<glyph unicode="&#xc4;" horiz-adv-x="1232" d="M35 0l313 1393h537l313 -1393h-283l-55 252h-487l-56 -252h-282zM264 1565v270h262v-270h-262zM426 498h381l-141 661h-99zM702 1565v270h263v-270h-263z" />
<glyph unicode="&#xc5;" horiz-adv-x="1232" d="M35 0l305 1356q-31 54 -31 121q0 120 88 189t219 69q130 0 219 -69t89 -189q0 -61 -31 -121l305 -1356h-283l-55 252h-487l-56 -252h-282zM426 498h381l-141 661h-99zM496 1477q0 -37 28.5 -60t79.5 -24h12q55 0 88 23t33 61t-33 61t-88 23t-87.5 -23t-32.5 -61z" />
<glyph unicode="&#xc6;" horiz-adv-x="1783" d="M25 0l376 1413h1299v-270h-619v-293h496v-268h-496v-312h619v-270h-897v238h-436l-60 -238h-282zM436 510h367l2 633h-205z" />
<glyph unicode="&#xc7;" horiz-adv-x="1112" d="M96 696q0 204 25 336.5t86.5 221t163 126t258.5 37.5q171 0 407 -55l-8 -225q-201 30 -358 30q-85 0 -135.5 -17.5t-86 -70t-48.5 -143t-13 -240.5q0 -84 3.5 -144.5t11.5 -112.5t23.5 -86t36.5 -60.5t52.5 -40.5t71 -20.5t92.5 -6.5q152 0 350 29l6 -231 q-76 -17 -189 -32t-200 -16v-51q65 -1 107.5 -8t77.5 -26.5t51 -56t16 -93.5q0 -117 -60 -175.5t-167 -58.5q-39 0 -87 6t-76 12l-28 5l8 160q64 -2 99 -2q78 0 78 53q0 26 -18 35.5t-60 9.5h-49v195q-105 10 -181 44.5t-126 91t-80 144t-42 191.5t-12 245z" />
<glyph unicode="&#xc8;" horiz-adv-x="1134" d="M152 0v1393h901v-246h-619v-326h496v-241h-496v-334h619v-246h-901zM285 1690l84 245l516 -217l-68 -190z" />
<glyph unicode="&#xc9;" horiz-adv-x="1134" d="M152 0v1393h901v-246h-619v-326h496v-241h-496v-334h619v-246h-901zM315 1718l516 217l84 -245l-532 -162z" />
<glyph unicode="&#xca;" horiz-adv-x="1134" d="M152 0v1393h901v-246h-619v-326h496v-241h-496v-334h619v-246h-901zM215 1567l274 305h240l275 -305h-291l-101 114l-106 -114h-291z" />
<glyph unicode="&#xcb;" horiz-adv-x="1134" d="M152 0v1393h901v-246h-619v-326h496v-241h-496v-334h619v-246h-901zM252 1565v270h262v-270h-262zM690 1565v270h262v-270h-262z" />
<glyph unicode="&#xcc;" horiz-adv-x="585" d="M-49 1690l84 245l516 -217l-68 -190zM152 0v1393h282v-1393h-282z" />
<glyph unicode="&#xcd;" horiz-adv-x="585" d="M14 1718l516 217l84 -245l-532 -162zM152 0v1393h282v-1393h-282z" />
<glyph unicode="&#xce;" horiz-adv-x="585" d="M-102 1567l274 305h240l274 -305h-291l-100 114l-107 -114h-290zM152 0v1393h282v-1393h-282z" />
<glyph unicode="&#xcf;" horiz-adv-x="585" d="M-57 1565v270h262v-270h-262zM152 0v1393h282v-1393h-282zM381 1565v270h262v-270h-262z" />
<glyph unicode="&#xd0;" horiz-adv-x="1314" d="M51 567v271h111v575h465q121 0 212 -17.5t157 -55.5t109 -91t68.5 -132.5t35.5 -170.5t10 -213q0 -109 -6.5 -192t-23.5 -162t-45.5 -136t-73.5 -105t-107 -77t-146 -45t-190 -16h-465v567h-111zM440 268h187q58 0 103 11t76.5 29.5t54 51.5t35.5 67.5t20 86.5t9.5 101 t2.5 118q0 68 -2.5 114t-9.5 93t-20.5 76.5t-35 56.5t-54 41t-76.5 22.5t-103 8.5h-187v-307h267v-271h-267v-299z" />
<glyph unicode="&#xd1;" horiz-adv-x="1419" d="M152 0v1393h477l336 -1147h20v1147h283v-1393h-465l-348 1147h-21v-1147h-282zM305 1757q4 5 12.5 14t33 31.5t49.5 40t59 31.5t65 14q54 0 127 -23.5t133 -47t82 -23.5q24 0 66 21.5t72 42.5l30 22l60 -199q-4 -5 -12 -14t-33 -31t-50 -39t-59.5 -31t-65.5 -14 q-58 0 -187.5 47.5t-158.5 47.5q-25 0 -66 -21.5t-69 -43.5l-28 -21z" />
<glyph unicode="&#xd2;" horiz-adv-x="1335" d="M90 688q0 183 29 314t95.5 226.5t179 142t274.5 46.5t274.5 -46.5t178.5 -142t95 -226.5t29 -314q0 -145 -18 -255.5t-59 -198.5t-107.5 -144t-164 -85.5t-228.5 -29.5t-228.5 29.5t-164 85.5t-108 144t-59.5 198.5t-18 255.5zM334 1690l84 245l516 -217l-68 -190z M381 688q0 -252 60.5 -359.5t226.5 -107.5q85 0 141 26.5t88 87t44.5 144t12.5 209.5q0 101 -8 174.5t-27 134t-51.5 97.5t-82 57t-117.5 20q-165 0 -226 -114t-61 -369z" />
<glyph unicode="&#xd3;" horiz-adv-x="1335" d="M90 688q0 183 29 314t95.5 226.5t179 142t274.5 46.5t274.5 -46.5t178.5 -142t95 -226.5t29 -314q0 -145 -18 -255.5t-59 -198.5t-107.5 -144t-164 -85.5t-228.5 -29.5t-228.5 29.5t-164 85.5t-108 144t-59.5 198.5t-18 255.5zM342 1718l516 217l84 -245l-532 -162z M381 688q0 -252 60.5 -359.5t226.5 -107.5q85 0 141 26.5t88 87t44.5 144t12.5 209.5q0 101 -8 174.5t-27 134t-51.5 97.5t-82 57t-117.5 20q-165 0 -226 -114t-61 -369z" />
<glyph unicode="&#xd4;" horiz-adv-x="1335" d="M90 688q0 183 29 314t95.5 226.5t179 142t274.5 46.5t274.5 -46.5t178.5 -142t95 -226.5t29 -314q0 -145 -18 -255.5t-59 -198.5t-107.5 -144t-164 -85.5t-228.5 -29.5t-228.5 29.5t-164 85.5t-108 144t-59.5 198.5t-18 255.5zM276 1567l275 305h240l274 -305h-291 l-100 114l-107 -114h-291zM381 688q0 -252 60.5 -359.5t226.5 -107.5q85 0 141 26.5t88 87t44.5 144t12.5 209.5q0 101 -8 174.5t-27 134t-51.5 97.5t-82 57t-117.5 20q-165 0 -226 -114t-61 -369z" />
<glyph unicode="&#xd5;" horiz-adv-x="1335" d="M90 688q0 183 29 314t95.5 226.5t179 142t274.5 46.5t274.5 -46.5t178.5 -142t95 -226.5t29 -314q0 -145 -18 -255.5t-59 -198.5t-107.5 -144t-164 -85.5t-228.5 -29.5t-228.5 29.5t-164 85.5t-108 144t-59.5 198.5t-18 255.5zM272 1757q5 5 13 14t33 31.5t50 40t59 31.5 t65 14q54 0 127 -23.5t133 -47t82 -23.5q24 0 65.5 21.5t71.5 42.5l30 22l60 -199q-4 -5 -12 -14t-33 -31t-49.5 -39t-59 -31t-65.5 -14q-58 0 -187.5 47.5t-158.5 47.5q-25 0 -66 -21.5t-70 -43.5l-28 -21zM381 688q0 -252 60.5 -359.5t226.5 -107.5q85 0 141 26.5t88 87 t44.5 144t12.5 209.5q0 101 -8 174.5t-27 134t-51.5 97.5t-82 57t-117.5 20q-165 0 -226 -114t-61 -369z" />
<glyph unicode="&#xd6;" horiz-adv-x="1335" d="M90 688q0 183 29 314t95.5 226.5t179 142t274.5 46.5t274.5 -46.5t178.5 -142t95 -226.5t29 -314q0 -145 -18 -255.5t-59 -198.5t-107.5 -144t-164 -85.5t-228.5 -29.5t-228.5 29.5t-164 85.5t-108 144t-59.5 198.5t-18 255.5zM317 1565v270h263v-270h-263zM381 688 q0 -252 60.5 -359.5t226.5 -107.5q85 0 141 26.5t88 87t44.5 144t12.5 209.5q0 101 -8 174.5t-27 134t-51.5 97.5t-82 57t-117.5 20q-165 0 -226 -114t-61 -369zM756 1565v270h262v-270h-262z" />
<glyph unicode="&#xd7;" d="M115 227l291 285l-289 283l174 174l282 -289l287 293l172 -174l-293 -287l293 -285l-174 -174l-285 291l-284 -289z" />
<glyph unicode="&#xd8;" horiz-adv-x="1335" d="M90 688q0 183 29 314t95.5 226.5t179 142t274.5 46.5q118 0 206 -24l125 266l205 -88l-133 -287q174 -168 174 -596q0 -145 -18 -255.5t-59 -198.5t-107.5 -144t-164 -85.5t-228.5 -29.5q-97 0 -197 21l-119 -256l-200 100l118 254q-96 85 -138 231t-42 363zM381 688 q0 -191 31 -291l354 760q-51 14 -98 14q-165 0 -226 -114t-61 -369zM580 229q36 -8 88 -8q85 0 141 26.5t88 87t44.5 144t12.5 209.5q0 181 -28 285z" />
<glyph unicode="&#xd9;" horiz-adv-x="1339" d="M139 471v922h283v-928q0 -124 61.5 -184t186.5 -60q248 0 248 244v928h282v-922q0 -257 -132 -376.5t-398 -119.5t-398.5 119.5t-132.5 376.5zM358 1690l84 245l516 -217l-67 -190z" />
<glyph unicode="&#xda;" horiz-adv-x="1339" d="M139 471v922h283v-928q0 -124 61.5 -184t186.5 -60q248 0 248 244v928h282v-922q0 -257 -132 -376.5t-398 -119.5t-398.5 119.5t-132.5 376.5zM358 1718l516 217l84 -245l-532 -162z" />
<glyph unicode="&#xdb;" horiz-adv-x="1339" d="M139 471v922h283v-928q0 -124 61.5 -184t186.5 -60q248 0 248 244v928h282v-922q0 -257 -132 -376.5t-398 -119.5t-398.5 119.5t-132.5 376.5zM276 1567l275 305h240l274 -305h-291l-100 114l-107 -114h-291z" />
<glyph unicode="&#xdc;" horiz-adv-x="1339" d="M139 471v922h283v-928q0 -124 61.5 -184t186.5 -60q248 0 248 244v928h282v-922q0 -257 -132 -376.5t-398 -119.5t-398.5 119.5t-132.5 376.5zM319 1565v270h263v-270h-263zM758 1565v270h262v-270h-262z" />
<glyph unicode="&#xdd;" horiz-adv-x="1140" d="M0 1393h313l256 -555l256 555h314l-426 -830v-563h-283v563zM272 1718l516 217l84 -245l-532 -162z" />
<glyph unicode="&#xde;" horiz-adv-x="1220" d="M152 0v1413h282v-201h230q499 0 499 -489q0 -249 -127.5 -384.5t-371.5 -135.5h-230v-203h-282zM434 477h228q105 0 160 64.5t55 181.5q0 112 -54 165.5t-161 53.5h-228v-465z" />
<glyph unicode="&#xdf;" horiz-adv-x="1251" d="M127 0v1069q0 210 110 299.5t363 89.5q237 0 354 -75.5t117 -245.5q0 -58 -11.5 -99t-38.5 -70.5t-58 -48.5t-84 -42q-75 -33 -98 -51.5t-23 -45.5q0 -21 12 -36t52 -38t128 -63q74 -34 117 -60.5t76.5 -62t47 -79t13.5 -105.5q0 -207 -92.5 -284t-320.5 -77 q-60 0 -139 12t-128 24l-49 12l8 219q199 -25 275 -25q92 0 128 20.5t36 57.5q0 46 -31 70.5t-156 78.5q-144 61 -202 130.5t-58 179.5q0 99 37 156t121 91q96 39 125.5 61.5t29.5 53.5q0 55 -41 78t-147 23q-113 0 -156 -35.5t-43 -118.5v-1063h-274z" />
<glyph unicode="&#xe0;" horiz-adv-x="1046" d="M59 311q0 85 23.5 144t72.5 94t111.5 52.5t151.5 23.5l219 16v64q0 63 -28 86.5t-93 23.5q-60 0 -156 -4t-162 -8l-67 -4l-8 190q25 7 66.5 17t151.5 26.5t198 16.5q198 0 285 -81.5t87 -262.5v-426q3 -49 16 -69.5t52 -27.5l-8 -207q-105 0 -167.5 15t-125.5 57 q-16 -8 -45 -20t-108.5 -32t-147.5 -20q-159 0 -238.5 85.5t-79.5 250.5zM211 1307l82 235l516 -209l-61 -178zM336 319q0 -120 100 -120q39 0 89.5 8t80.5 16l31 8v220l-186 -17q-115 -10 -115 -115z" />
<glyph unicode="&#xe1;" horiz-adv-x="1046" d="M59 311q0 85 23.5 144t72.5 94t111.5 52.5t151.5 23.5l219 16v64q0 63 -28 86.5t-93 23.5q-60 0 -156 -4t-162 -8l-67 -4l-8 190q25 7 66.5 17t151.5 26.5t198 16.5q198 0 285 -81.5t87 -262.5v-426q3 -49 16 -69.5t52 -27.5l-8 -207q-105 0 -167.5 15t-125.5 57 q-16 -8 -45 -20t-108.5 -32t-147.5 -20q-159 0 -238.5 85.5t-79.5 250.5zM197 1333l516 209l82 -235l-537 -152zM336 319q0 -120 100 -120q39 0 89.5 8t80.5 16l31 8v220l-186 -17q-115 -10 -115 -115z" />
<glyph unicode="&#xe2;" horiz-adv-x="1046" d="M59 311q0 85 23.5 144t72.5 94t111.5 52.5t151.5 23.5l219 16v64q0 63 -28 86.5t-93 23.5q-60 0 -156 -4t-162 -8l-67 -4l-8 190q25 7 66.5 17t151.5 26.5t198 16.5q198 0 285 -81.5t87 -262.5v-426q3 -49 16 -69.5t52 -27.5l-8 -207q-105 0 -167.5 15t-125.5 57 q-16 -8 -45 -20t-108.5 -32t-147.5 -20q-159 0 -238.5 85.5t-79.5 250.5zM170 1188l258 309h172l262 -309h-252l-94 137l-94 -137h-252zM336 319q0 -120 100 -120q39 0 89.5 8t80.5 16l31 8v220l-186 -17q-115 -10 -115 -115z" />
<glyph unicode="&#xe3;" horiz-adv-x="1046" d="M59 311q0 85 23.5 144t72.5 94t111.5 52.5t151.5 23.5l219 16v64q0 63 -28 86.5t-93 23.5q-60 0 -156 -4t-162 -8l-67 -4l-8 190q25 7 66.5 17t151.5 26.5t198 16.5q198 0 285 -81.5t87 -262.5v-426q3 -49 16 -69.5t52 -27.5l-8 -207q-105 0 -167.5 15t-125.5 57 q-16 -8 -45 -20t-108.5 -32t-147.5 -20q-159 0 -238.5 85.5t-79.5 250.5zM111 1362q4 5 12 13.5t32 29.5t48.5 37t57.5 29.5t63 13.5q45 0 140 -37t120 -37q24 0 65 17.5t70 35.5l29 17l59 -156q-4 -5 -12 -13.5t-32.5 -30.5t-49 -39t-58 -30.5t-63.5 -13.5q-45 0 -138.5 37 t-125.5 37q-25 0 -64.5 -16t-66.5 -32l-27 -16zM336 319q0 -120 100 -120q39 0 89.5 8t80.5 16l31 8v220l-186 -17q-115 -10 -115 -115z" />
<glyph unicode="&#xe4;" horiz-adv-x="1046" d="M59 311q0 85 23.5 144t72.5 94t111.5 52.5t151.5 23.5l219 16v64q0 63 -28 86.5t-93 23.5q-60 0 -156 -4t-162 -8l-67 -4l-8 190q25 7 66.5 17t151.5 26.5t198 16.5q198 0 285 -81.5t87 -262.5v-426q3 -49 16 -69.5t52 -27.5l-8 -207q-105 0 -167.5 15t-125.5 57 q-16 -8 -45 -20t-108.5 -32t-147.5 -20q-159 0 -238.5 85.5t-79.5 250.5zM133 1221v270h262v-270h-262zM336 319q0 -120 100 -120q39 0 89.5 8t80.5 16l31 8v220l-186 -17q-115 -10 -115 -115zM575 1221v270h263v-270h-263z" />
<glyph unicode="&#xe5;" horiz-adv-x="1046" d="M59 311q0 85 23.5 144t72.5 94t111.5 52.5t151.5 23.5l219 16v64q0 63 -28 86.5t-93 23.5q-60 0 -156 -4t-162 -8l-67 -4l-8 190q25 7 66.5 17t151.5 26.5t198 16.5q198 0 285 -81.5t87 -262.5v-426q3 -49 16 -69.5t52 -27.5l-8 -207q-105 0 -167.5 15t-125.5 57 q-16 -8 -45 -20t-108.5 -32t-147.5 -20q-159 0 -238.5 85.5t-79.5 250.5zM303 1307q0 100 69 169.5t171 69.5q100 0 169.5 -69.5t69.5 -169.5q0 -102 -69.5 -171t-169.5 -69q-103 0 -171.5 68.5t-68.5 171.5zM336 319q0 -120 100 -120q39 0 89.5 8t80.5 16l31 8v220 l-186 -17q-115 -10 -115 -115zM451 1307q0 -41 26.5 -68t67.5 -27q40 0 66 27t26 68q0 40 -26 66t-66 26q-41 0 -67.5 -26t-26.5 -66z" />
<glyph unicode="&#xe6;" horiz-adv-x="1605" d="M59 311q0 164 90 235t267 81l221 14v51q0 41 -28.5 66.5t-73.5 25.5q-68 0 -167.5 -5.5t-165.5 -10.5l-65 -6l-8 239q272 46 422 46q177 0 264 -76q109 76 272 76q225 0 336 -114.5t111 -346.5l-21 -193h-602q2 -88 49.5 -127t157.5 -39q75 0 169.5 4.5t152.5 9.5l57 5 l4 -213q-236 -58 -426 -58q-208 0 -313 99l-47 -23q-172 -76 -350 -76q-149 0 -227.5 89.5t-78.5 246.5zM336 319q0 -108 84 -108q37 0 91.5 7.5t90.5 15.5l35 8q0 32 -1 95t-1 95l-184 -8q-57 -3 -86 -27.5t-29 -77.5zM911 604h353q0 109 -40 154t-137 45t-136.5 -47.5 t-39.5 -151.5z" />
<glyph unicode="&#xe7;" horiz-adv-x="913" d="M78 522q0 273 102.5 400t329.5 127q53 0 135 -11.5t137 -22.5l56 -11l-9 -218q-161 17 -239 17q-74 0 -119.5 -14.5t-71 -50t-34.5 -85t-9 -131.5q0 -91 9 -144.5t35.5 -91t71.5 -51.5t120 -14q35 0 94 4.5t101 8.5l42 4l9 -220q-199 -39 -316 -43v-51q65 -1 107.5 -8 t77.5 -26.5t51 -56t16 -93.5q0 -117 -60 -175.5t-167 -58.5q-39 0 -87 6t-76 12l-28 5l9 160q63 -2 98 -2q78 0 78 53q0 26 -18 35.5t-60 9.5h-49v197q-179 23 -257.5 151.5t-78.5 388.5z" />
<glyph unicode="&#xe8;" horiz-adv-x="1044" d="M76 498q0 274 114 412.5t338 138.5q447 0 447 -463l-21 -191h-602q2 -93 50 -135.5t157 -42.5q75 0 169.5 4.5t151.5 9.5l58 5l4 -203q-236 -58 -426 -58q-232 0 -336 123.5t-104 399.5zM225 1307l82 235l516 -209l-61 -178zM350 604h355q0 123 -39.5 171t-137.5 48 q-97 0 -136.5 -50t-41.5 -169z" />
<glyph unicode="&#xe9;" horiz-adv-x="1044" d="M76 498q0 274 114 412.5t338 138.5q447 0 447 -463l-21 -191h-602q2 -93 50 -135.5t157 -42.5q75 0 169.5 4.5t151.5 9.5l58 5l4 -203q-236 -58 -426 -58q-232 0 -336 123.5t-104 399.5zM215 1333l516 209l82 -235l-537 -152zM350 604h355q0 123 -39.5 171t-137.5 48 q-97 0 -136.5 -50t-41.5 -169z" />
<glyph unicode="&#xea;" horiz-adv-x="1044" d="M76 498q0 274 114 412.5t338 138.5q447 0 447 -463l-21 -191h-602q2 -93 50 -135.5t157 -42.5q75 0 169.5 4.5t151.5 9.5l58 5l4 -203q-236 -58 -426 -58q-232 0 -336 123.5t-104 399.5zM182 1188l258 309h172l262 -309h-251l-95 137l-94 -137h-252zM350 604h355 q0 123 -39.5 171t-137.5 48q-97 0 -136.5 -50t-41.5 -169z" />
<glyph unicode="&#xeb;" horiz-adv-x="1044" d="M76 498q0 274 114 412.5t338 138.5q447 0 447 -463l-21 -191h-602q2 -93 50 -135.5t157 -42.5q75 0 169.5 4.5t151.5 9.5l58 5l4 -203q-236 -58 -426 -58q-232 0 -336 123.5t-104 399.5zM172 1221v270h262v-270h-262zM350 604h355q0 123 -39.5 171t-137.5 48 q-97 0 -136.5 -50t-41.5 -169zM614 1221v270h263v-270h-263z" />
<glyph unicode="&#xec;" horiz-adv-x="528" d="M-121 1307l82 235l516 -209l-61 -178zM127 0v1024h274v-1024h-274z" />
<glyph unicode="&#xed;" horiz-adv-x="528" d="M63 1333l517 209l82 -235l-537 -152zM127 0h274v1024h-274v-1024z" />
<glyph unicode="&#xee;" horiz-adv-x="528" d="M-92 1188l258 309h172l262 -309h-252l-94 137l-94 -137h-252zM127 0h274v1024h-274v-1024z" />
<glyph unicode="&#xef;" horiz-adv-x="528" d="M-98 1221v270h262v-270h-262zM127 0h274v1024h-274v-1024zM344 1221v270h262v-270h-262z" />
<glyph unicode="&#xf0;" horiz-adv-x="1161" d="M78 442q0 213 112 334t334 121q63 0 129.5 -12.5t102.5 -24.5l35 -12q-10 96 -51 164.5t-132 120.5l-264 -177l-111 156l156 105q-109 28 -221 49l37 192q245 -18 428 -80l196 131l111 -155l-111 -74q252 -180 252 -569q0 -376 -123 -552.5t-399 -176.5q-481 0 -481 460z M369 442q0 -215 190 -215q115 0 173.5 90t58.5 293q-12 5 -33 12.5t-86.5 20t-130.5 12.5q-85 0 -128.5 -62.5t-43.5 -150.5z" />
<glyph unicode="&#xf1;" horiz-adv-x="1132" d="M127 0h274v766q91 37 187 37q39 0 67 -12t44.5 -32.5t26 -54.5t12.5 -70t3 -87v-547h275v555q0 98 -10 172t-34.5 136.5t-65.5 102t-103.5 61.5t-147.5 22q-52 0 -116 -20.5t-102 -40.5l-38 -21v57h-272v-1024zM227 1362q4 5 12 13.5t32 29.5t48.5 37t57.5 29.5t63 13.5 q45 0 140 -37t120 -37q24 0 65 17.5t70 35.5l29 17l60 -156q-4 -5 -12 -13.5t-32.5 -30.5t-49 -39t-58 -30.5t-63.5 -13.5q-45 0 -139 37t-126 37q-25 0 -64.5 -16t-65.5 -32l-27 -16z" />
<glyph unicode="&#xf2;" horiz-adv-x="1089" d="M74 514q0 123 24 217.5t77.5 167.5t146.5 111.5t223 38.5t223 -38.5t146.5 -111.5t77.5 -167.5t24 -217.5t-24 -218t-77.5 -169t-146.5 -113t-223 -39t-223 39t-146.5 113t-77.5 169t-24 218zM252 1307l82 235l516 -209l-62 -178zM352 514q0 -158 42 -231.5t151 -73.5 t150.5 73.5t41.5 231.5q0 157 -41.5 229t-150.5 72t-151 -72t-42 -229z" />
<glyph unicode="&#xf3;" horiz-adv-x="1089" d="M74 514q0 -123 24 -218t77.5 -169t146.5 -113t223 -39t223 39t146.5 113t77.5 169t24 218t-24 217.5t-77.5 167.5t-146.5 111.5t-223 38.5t-223 -38.5t-146.5 -111.5t-77.5 -167.5t-24 -217.5zM238 1333l516 209l82 -235l-537 -152zM352 514q0 157 42 229t151 72 t150.5 -72t41.5 -229q0 -158 -41.5 -231.5t-150.5 -73.5t-151 73.5t-42 231.5z" />
<glyph unicode="&#xf4;" horiz-adv-x="1089" d="M74 514q0 -123 24 -218t77.5 -169t146.5 -113t223 -39t223 39t146.5 113t77.5 169t24 218t-24 217.5t-77.5 167.5t-146.5 111.5t-223 38.5t-223 -38.5t-146.5 -111.5t-77.5 -167.5t-24 -217.5zM186 1188l258 309h172l263 -309h-252l-95 137l-94 -137h-252zM352 514 q0 157 42 229t151 72t150.5 -72t41.5 -229q0 -158 -41.5 -231.5t-150.5 -73.5t-151 73.5t-42 231.5z" />
<glyph unicode="&#xf5;" horiz-adv-x="1089" d="M74 514q0 -123 24 -218t77.5 -169t146.5 -113t223 -39t223 39t146.5 113t77.5 169t24 218t-24 217.5t-77.5 167.5t-146.5 111.5t-223 38.5t-223 -38.5t-146.5 -111.5t-77.5 -167.5t-24 -217.5zM186 1362q4 5 12 13.5t32 29.5t48.5 37t57.5 29.5t63 13.5q45 0 140 -37 t120 -37q24 0 65 17.5t70 35.5l29 17l60 -156q-4 -5 -12 -13.5t-32.5 -30.5t-49 -39t-58 -30.5t-63.5 -13.5q-45 0 -139 37t-126 37q-25 0 -64.5 -16t-66.5 -32l-26 -16zM352 514q0 157 42 229t151 72t150.5 -72t41.5 -229q0 -158 -41.5 -231.5t-150.5 -73.5t-151 73.5 t-42 231.5z" />
<glyph unicode="&#xf6;" horiz-adv-x="1089" d="M74 514q0 -123 24 -218t77.5 -169t146.5 -113t223 -39t223 39t146.5 113t77.5 169t24 218t-24 217.5t-77.5 167.5t-146.5 111.5t-223 38.5t-223 -38.5t-146.5 -111.5t-77.5 -167.5t-24 -217.5zM190 1221v270h263v-270h-263zM352 514q0 157 42 229t151 72t150.5 -72 t41.5 -229q0 -158 -41.5 -231.5t-150.5 -73.5t-151 73.5t-42 231.5zM633 1221v270h262v-270h-262z" />
<glyph unicode="&#xf7;" d="M102 391v246h942v-246h-942zM436 35v270h271v-270h-271zM436 721v270h271v-270h-271z" />
<glyph unicode="&#xf8;" horiz-adv-x="1089" d="M74 514q0 123 24 217.5t77.5 167.5t146.5 111.5t223 38.5q50 0 114 -11l82 205l166 -61l-84 -201q193 -120 193 -467q0 -123 -24 -218t-77.5 -169t-146.5 -113t-223 -39q-66 0 -129 13l-84 -209l-164 61l88 211q-182 123 -182 463zM352 514q0 -127 25 -195l194 494 q-4 0 -13 1t-13 1q-109 0 -151 -72t-42 -229zM504 211q12 -2 41 -2q109 0 150.5 73.5t41.5 231.5q0 134 -28 203z" />
<glyph unicode="&#xf9;" horiz-adv-x="1132" d="M117 487v537h274v-541q0 -52 1.5 -83.5t6 -65t14 -51.5t25.5 -34t39.5 -22t57.5 -6q45 0 94 9.5t75 18.5l27 9v766h275v-1024h-273v57q-16 -9 -43.5 -22.5t-96 -36.5t-116.5 -23q-111 0 -182 30t-110 97.5t-53.5 157t-14.5 227.5zM201 1307l82 235l516 -209l-62 -178z " />
<glyph unicode="&#xfa;" horiz-adv-x="1132" d="M117 487q0 -138 14.5 -227.5t53.5 -157t110 -97.5t182 -30q48 0 112 20.5t104 40.5l40 21v-57h273v1024h-275v-766q-94 -37 -196 -37q-34 0 -57.5 6t-39.5 22t-25.5 34t-14 51.5t-6 65t-1.5 83.5v541h-274v-537zM266 1333l516 209l82 -235l-536 -152z" />
<glyph unicode="&#xfb;" horiz-adv-x="1132" d="M117 487q0 -138 14.5 -227.5t53.5 -157t110 -97.5t182 -30q48 0 112 20.5t104 40.5l40 21v-57h273v1024h-275v-766q-94 -37 -196 -37q-34 0 -57.5 6t-39.5 22t-25.5 34t-14 51.5t-6 65t-1.5 83.5v541h-274v-537zM168 1188l258 309h172l262 -309h-252l-94 137l-94 -137 h-252z" />
<glyph unicode="&#xfc;" horiz-adv-x="1132" d="M117 487q0 -138 14.5 -227.5t53.5 -157t110 -97.5t182 -30q48 0 112 20.5t104 40.5l40 21v-57h273v1024h-275v-766q-94 -37 -196 -37q-34 0 -57.5 6t-39.5 22t-25.5 34t-14 51.5t-6 65t-1.5 83.5v541h-274v-537zM217 1221v270h262v-270h-262zM659 1221v270h263v-270h-263 z" />
<glyph unicode="&#xfd;" horiz-adv-x="1024" d="M33 1024h270l186 -791h48l186 791h270l-360 -1454h-268l112 430h-192zM250 1333l516 209l82 -235l-537 -152z" />
<glyph unicode="&#xfe;" horiz-adv-x="1114" d="M127 -430v1864h274v-441q132 56 222 56q144 0 232.5 -48.5t134.5 -165.5t46 -313q0 -163 -27.5 -270t-88.5 -168t-143.5 -85t-205.5 -24q-34 0 -76.5 4.5t-68.5 8.5l-25 4v-422h-274zM401 225q93 -12 150 -12q120 0 163.5 69.5t43.5 239.5q0 281 -172 281 q-36 0 -82.5 -6.5t-74.5 -13.5l-28 -7v-551z" />
<glyph unicode="&#xff;" horiz-adv-x="1024" d="M33 1024h270l186 -791h48l186 791h270l-360 -1454h-268l112 430h-192zM162 1221v270h262v-270h-262zM604 1221v270h262v-270h-262z" />
<glyph unicode="&#x152;" horiz-adv-x="1847" d="M94 707q0 400 119.5 565.5t413.5 165.5q81 0 239 -25h897v-270h-618v-293h495v-268h-495v-312h618v-270h-893q-163 -25 -243 -25q-128 0 -220.5 30t-153 85.5t-96 147.5t-49.5 203t-14 266zM385 707q0 -92 4.5 -155.5t17 -117t33 -86t53.5 -54.5t77 -31t106 -9 q50 0 190 12v881q-144 12 -198 12q-112 0 -170.5 -36t-85.5 -132.5t-27 -283.5z" />
<glyph unicode="&#x153;" horiz-adv-x="1708" d="M74 512q0 123 24 217.5t77.5 167.5t146.5 111.5t223 38.5q119 0 198.5 -37.5t133.5 -128.5q54 92 130 129t183 37q225 0 335.5 -114.5t110.5 -346.5l-20 -193h-602q2 -88 49.5 -127t157.5 -39q75 0 169.5 4.5t151.5 9.5l57 5l5 -213q-236 -58 -426 -58q-111 0 -187 31 t-127 109q-54 -76 -131 -108t-188 -32q-130 0 -223 39t-146.5 112.5t-77.5 168t-24 217.5zM352 512q0 -149 42 -219t151 -70t150.5 70t41.5 219t-41.5 218t-150.5 69t-151 -69t-42 -218zM1012 604h354q0 109 -39.5 154t-136.5 45q-96 0 -137 -48.5t-41 -150.5z" />
<glyph unicode="&#x178;" horiz-adv-x="1140" d="M0 1393h313l256 -555l256 555h314l-426 -830v-563h-283v563zM215 1565v270h262v-270h-262zM653 1565v270h262v-270h-262z" />
<glyph unicode="&#x2c6;" horiz-adv-x="548" d="M-49 1188l258 309h172l262 -309h-252l-94 137l-94 -137h-252z" />
<glyph unicode="&#x2dc;" horiz-adv-x="548" d="M-45 1362q4 5 12 13.5t32 29.5t48.5 37t57.5 29.5t63 13.5q45 0 140 -37t120 -37q24 0 65 17.5t70 35.5l29 17l59 -156q-4 -5 -12 -13.5t-32.5 -30.5t-49 -39t-58 -30.5t-63.5 -13.5q-45 0 -138.5 37t-125.5 37q-25 0 -64.5 -16t-66.5 -32l-27 -16z" />
<glyph unicode="&#x2000;" horiz-adv-x="967" />
<glyph unicode="&#x2001;" horiz-adv-x="1935" />
<glyph unicode="&#x2002;" horiz-adv-x="967" />
<glyph unicode="&#x2003;" horiz-adv-x="1935" />
<glyph unicode="&#x2004;" horiz-adv-x="645" />
<glyph unicode="&#x2005;" horiz-adv-x="483" />
<glyph unicode="&#x2006;" horiz-adv-x="322" />
<glyph unicode="&#x2007;" horiz-adv-x="322" />
<glyph unicode="&#x2008;" horiz-adv-x="241" />
<glyph unicode="&#x2009;" horiz-adv-x="387" />
<glyph unicode="&#x200a;" horiz-adv-x="107" />
<glyph unicode="&#x2010;" horiz-adv-x="835" d="M115 420v250h606v-250h-606z" />
<glyph unicode="&#x2011;" horiz-adv-x="835" d="M115 420v250h606v-250h-606z" />
<glyph unicode="&#x2012;" horiz-adv-x="835" d="M115 420v250h606v-250h-606z" />
<glyph unicode="&#x2013;" horiz-adv-x="1257" d="M117 428v234h1024v-234h-1024z" />
<glyph unicode="&#x2014;" horiz-adv-x="2281" d="M117 428v234h2048v-234h-2048z" />
<glyph unicode="&#x2018;" horiz-adv-x="530" d="M72 885l174 506h211l-99 -506h-286z" />
<glyph unicode="&#x2019;" horiz-adv-x="520" d="M84 887l96 506h289l-174 -506h-211z" />
<glyph unicode="&#x201a;" horiz-adv-x="524" d="M47 -240l96 506h289l-174 -506h-211z" />
<glyph unicode="&#x201c;" horiz-adv-x="907" d="M72 885l174 506h211l-99 -506h-286zM449 885l174 506h211l-99 -506h-286z" />
<glyph unicode="&#x201d;" horiz-adv-x="899" d="M84 889l96 506h289l-176 -506h-209zM461 889l96 506h289l-174 -506h-211z" />
<glyph unicode="&#x201e;" horiz-adv-x="862" d="M-14 -266l174 506h211l-99 -506h-286zM375 -266l174 506h211l-98 -506h-287z" />
<glyph unicode="&#x2022;" horiz-adv-x="921" d="M205 205v573h512v-573h-512z" />
<glyph unicode="&#x2026;" horiz-adv-x="1568" d="M115 0v340h295v-340h-295zM637 0v340h295v-340h-295zM1159 0v340h295v-340h-295z" />
<glyph unicode="&#x202f;" horiz-adv-x="387" />
<glyph unicode="&#x2039;" horiz-adv-x="651" d="M82 397v197l457 336v-277l-224 -153l224 -176v-277z" />
<glyph unicode="&#x203a;" horiz-adv-x="651" d="M111 68v276l223 176l-223 154v276l456 -336v-196z" />
<glyph unicode="&#x205f;" horiz-adv-x="483" />
<glyph unicode="&#x20ac;" d="M53 383v209h113v84v51h-113v209h127q31 239 145 339.5t357 100.5q154 0 395 -53l-8 -219q-70 11 -176 20t-170 9q-118 0 -176 -41t-82 -156h481v-209h-497v-51v-84h497v-209h-473q24 -93 81.5 -128.5t174.5 -35.5q129 0 340 27l6 -223q-79 -18 -194 -33t-199 -15 q-234 0 -348.5 98.5t-149.5 309.5h-131z" />
<glyph unicode="&#x2122;" horiz-adv-x="1351" d="M164 1157v162h409v-162h-84v-477h-180v477h-145zM625 678v641h211l84 -324l92 324h209v-641h-168v356l-70 -313h-113l-77 313v-356h-168z" />
<glyph unicode="&#x25fc;" horiz-adv-x="1024" d="M0 0v1024h1024v-1024h-1024z" />
</font>
</defs>
</svg>
